Argentina Warez » Descargas Gratis » Películas Gratis Transformers 1 [DVDRip][Latino][2007][MF-PL-JF-RS]
28-jul-2012
MecF
Premier User
Transformers 1 [DVDRip][Latino][2007][MF-PL-JF-RS]
Transformers 1 [DVDRip][Latino][2007] Por MediaFire, RapidShare y PutLocker



Sinopsis:
Adaptación al cine de la popular línea de robots que se convertían en diferentes vehículos, que se conocieron en los años 80 como "Transformers", dando origen a una serie animada. Los Transformers, robots gigantes que se transforman en coches, camiones, aviones y toda clase de creaciones tecnológicas, se dividen en dos grupos, uno de ellos cree en la tolerancia y el carácter sagrado de la vida, mientras que el otro se adhiere a la supervivencia de su género por medio del exterminio de la vida biológica.

Datos del Ripeo:
Spoiler


Código:
General
Complete name                            : Trnsfrmr_1_La.avi
Format                                   : AVI
Format/Info                              : Audio Video Interleave
File size                                : 700 MiB
Duration                                 : 2h 23mn
Overall bit rate mode                    : Variable
Overall bit rate                         : 682 Kbps
Writing application                      : VirtualDubMod 1.5.4.1 (build 2178/release)
Writing library                          : VirtualDubMod build 2178/release

Video
ID                                       : 0
Format                                   : MPEG-4 Visual
Format profile                           : Advanced Simple@L5
Format settings, BVOP                    : 1
Format settings, QPel                    : No
Format settings, GMC                     : No warppoints
Format settings, Matrix                  : Custom
Codec ID                                 : XVID
Codec ID/Hint                            : XviD
Duration                                 : 2h 23mn
Bit rate                                 : 554 Kbps
Width                                    : 608 pixels
Height                                   : 256 pixels
Display aspect ratio                     : 2.40:1
Frame rate                               : 23.976 fps
Color space                              : YUV
Chroma subsampling                       : 4:2:0
Bit depth                                : 8 bits
Scan type                                : Progressive
Compression mode                         : Lossy
Bits/(Pixel*Frame)                       : 0.148
Stream size                              : 568 MiB (81%)
Writing library                          : XviD 1.1.2 (UTC 2006-11-01)

Audio
ID                                       : 1
Format                                   : MPEG Audio
Format version                           : Version 1
Format profile                           : Layer 3
Mode                                     : Joint stereo
Mode extension                           : MS Stereo
Codec ID                                 : 55
Codec ID/Hint                            : MP3
Duration                                 : 2h 23mn
Bit rate mode                            : Variable
Bit rate                                 : 116 Kbps
Nominal bit rate                         : 128 Kbps
Channel(s)                               : 2 channels
Sampling rate                            : 48.0 KHz
Compression mode                         : Lossy
Stream size                              : 119 MiB (17%)
Alignment                                : Aligned on interleaves
Interleave, duration                     : 24 ms (0.58 video frame)
Interleave, preload duration             : 158 ms
Writing library                          : LAME3.97
Encoding settings                        : -m j -V 4 -q 2 -lowpass 17 --abr 128
Language                                 : Spanish



Descargas

(Click en la imágen para descargar)






Contraseña: MecF

Más Películas:

Descargar Transformers 1 [DVDRip][Latino][2007][MF-PL-JF-RS] Pelicula Gratis


22-sep-2012
jonmtz
New User
Re: Transformers 1 [DVDRip][Latino][2007][MF-PL-JF-RS]
graciass......
29-dic-2012
johanup
Black User
Re: Transformers 1 [DVDRip][Latino][2007][MF-PL-JF-RS]
hermano la parte 3 esta dañada en todos los servidores.
despues k tengo tanto tiempo y descargaron todas las partes c presenta esto.

favor podrias erreglarla

lo descarge desde mediafire
07-feb-2013
zeto681
Black User
Re: Transformers 1 [DVDRip][Latino][2007][MF-PL-JF-RS]
probando
07-feb-2013
zeto681
Black User
Re: Transformers 1 [DVDRip][Latino][2007][MF-PL-JF-RS]
la parte 3 si descarga
07-feb-2013
zeto681
Black User
Re: Transformers 1 [DVDRip][Latino][2007][MF-PL-JF-RS]
al descomprimir voy ver si ta wena.......... wen aporte

Necesitás estar Registrado para dejar comentarios en Transformers 1 [DVDRip][Latino][2007][MF-PL-JF-RS]

Información del Post