Esto es la Guerra [2012][DVDRip][Castellano][Comedia]


Descargar Esto es la Guerra [2012][DVDRip][Castellano][Comedia] Película Gratis 1 link



Argentina Warez » Descargas Gratis » Películas Gratis Esto es la Guerra [2012][DVDRip][Castellano][Comedia]
29-jul-2012
nihbez
Gold User
Esto es la Guerra [2012][DVDRip][Castellano][Comedia]





Título: Esto es la guerra
Título original: This Means War
País: USA
Estreno en USA: 17/02/2012
Estreno en España: 09/03/2012
Productora: Twentieth Century Fox
Director: McG
Guión: Tim Dowling, Burr Steers & Marcus Gautesen
Reparto: Chris Pine, Reese Witherspoon, Tom Hardy, Laura Vandervoort, Til Schweiger, Rebel Wilson, Angela Bassett, Abigail Spencer, Emilie Ullerup, Chelsea Handler, Warren Christie, David Koechner, Marie Avgeropoulos, Brendan Meyer, Leela Savasta

Dos agentes de la CIA (Chris Pine y Tom Hardy) y grandes amigos de la infancia, se enamoran de la misma mujer (Reese Witherspoon). Su amistad desaparece y se enzarzan en una batalla de proporciones épicas que resulta en la destrucción de la ciudad de Nueva York.




Código:
Esto.Es.La.Guerra.DVDrip.fanatico.avi
Format                                   : AVI
Format/Info                              : Audio Video Interleave
File size                                : 1.39 GiB
Duration                                 : 1h 44mn
Overall bit rate                         : 1 914 Kbps
Writing application                      : VirtualDubMod 1.5.10.3 
Writing library                          : VirtualDubMod build 2550/release

Video
ID                                       : 0
Format                                   : MPEG-4 Visual
Format profile                           : Advanced Simple@L5
Format settings, BVOP                    : 3
Format settings, QPel                    : No
Format settings, GMC                     : No warppoints
Format settings, Matrix                  : Default (MPEG)
Codec ID                                 : XVID
Codec ID/Hint                            : XviD
Duration                                 : 1h 44mn
Bit rate                                 : 1 521 Kbps
Width                                    : 720 pixels
Height                                   : 304 pixels
Display aspect ratio                     : 2.35:1
Frame rate                               : 23.976 fps
Color space                              : YUV
Chroma subsampling                       : 4:2:0
Bit depth                                : 8 bits
Scan type                                : Progressive
Compression mode                         : Lossy
Bits/(Pixel*Frame)                       : 0.290
Stream size                              : 1.10 GiB (79%)
Writing library                          : XviD 64

Audio
ID                                       : 1
Format                                   : AC-3
Format/Info                              : Audio Coding 3
Mode extension                           : CM (complete main)
Codec ID                                 : 2000
Duration                                 : 1h 44mn
Bit rate mode                            : Constant
Bit rate                                 : 384 Kbps
Channel(s)                               : 6 channels
Channel positions                        : Front: L C R, Side: L R, LFE
Sampling rate                            : 48.0 KHz
Bit depth                                : 16 bits
Compression mode                         : Lossy
Stream size                              : 286 MiB (20%)
Alignment                                : Split accross interleaves
Interleave, duration                     : 42 ms (1.00 video frame)
Interleave, preload duration             : 500 ms







Código:
http://uploadjet.net/iefd1olpsv4p/Esto.Es.La.Guerra.DVDrip.fanatico.avi.part1.rar.htm
http://uploadjet.net/xfmwi8zo8ez8/Esto.Es.La.Guerra.DVDrip.fanatico.avi.part2.rar.htm
http://uploadjet.net/411nn7xq9nv6/Esto.Es.La.Guerra.DVDrip.fanatico.avi.part3.rar.htm

Descargar Esto es la Guerra [2012][DVDRip][Castellano][Comedia] Pelicula Gratis



Necesitás estar Registrado para dejar comentarios en Esto es la Guerra [2012][DVDRip][Castellano][Comedia]

Información del Post