Proyecto X (DVDRip | Latino | 1 Link | PL/JF | 2012)


Descargar Proyecto X (DVDRip | Latino | 1 Link | PL/JF | 2012) Película Gratis 1 link por Mega y Mediafire



Argentina Warez » Descargas Gratis » Películas Gratis Proyecto X (DVDRip | Latino | 1 Link | PL/JF | 2012)
31-jul-2012
JonUp
Premier User
Proyecto X (DVDRip | Latino | 1 Link | PL/JF | 2012)



Código:
DIRECTOR Nima Nourizadeh GUIÓN Matt Drake, Michael Bacall MÚSICA Varios FOTOGRAFÍA Ken Seng REPARTO Miles Teller, Oliver Cooper, Jonathan Daniel Brown, Kirby Bliss Blanton, Dax Flame, Nichole O'Connor, Thomas Mann, Alexis Knapp, Jillian Reynolds, Martin Klebba, Rick Shapiro, Caitlin Dulany, Peter MacKenzie PRODUCTORA Green Hat Films / Silver Pictures GÉNERO Comedia | Cine independiente USA

Código:
Un grupo de adolescentes, que celebra una fiesta, decide grabarla, pero de repente, surge una serie de complicaciones imprevistas.



Código:
Format : AVI Format/Info : Audio Video Interleave File size : 702 MiB Duration : 1h 27mn Overall bit rate : 1 117 Kbps Writing application : VirtualDubMod 1.5.10.2 (build 2542/release) Writing library : VirtualDubMod build 2542/release Video ID : 0 Format : MPEG-4 Visual Format profile : Advanced Simple@L5 Format settings, BVOP : 2 Format settings, QPel : No Format settings, GMC : No warppoints Format settings, Matrix : Default (H.263) Codec ID : XVID Codec ID/Hint : XviD Duration : 1h 27mn Bit rate : 980 Kbps Width : 640 pixels Height : 352 pixels Display aspect ratio : 16:9 Frame rate : 23.976 fps Color space : YUV Chroma subsampling : 4:2:0 Bit depth : 8 bits Scan type : Progressive Compression mode : Lossy Bits/(Pixel*Frame) : 0.181 Stream size : 616 MiB (88%) Writing library : XviD 1.2.1 (UTC 2008-12-04) Audio ID : 1 Format : MPEG Audio Format version : Version 1 Format profile : Layer 3 Mode : Joint stereo Mode extension : MS Stereo Codec ID : 55 Codec ID/Hint : MP3 Duration : 1h 27mn Bit rate mode : Constant Bit rate : 128 Kbps Channel(s) : 2 channels Sampling rate : 48.0 KHz Compression mode : Lossy Stream size : 80.5 MiB (11%) Alignment : Aligned on interleaves Interleave, duration : 42 ms (1.00 video frame) Interleave, preload duration : 504 ms Writing library : LAME3.99r Encoding settings : -m j -V 4 -q 2 -lowpass 17 -b 128



Código:
http://adf.ly/BPZFW

Código:
http://adf.ly/BPYEU

Descargar Proyecto X (DVDRip | Latino | 1 Link | PL/JF | 2012) Pelicula Gratis



Necesitás estar Registrado para dejar comentarios en Proyecto X (DVDRip | Latino | 1 Link | PL/JF | 2012)

Información del Post