Tengo Ganas de Tí (2012) [DVD-Screener][Castellano][Romance]


Descargar Tengo Ganas de Tí (2012) [DVD-Screener][Castellano][Romance] Película Gratis 1 link por Mega y Mediafire



Argentina Warez » Descargas Gratis » Películas Gratis Tengo Ganas de Tí (2012) [DVD-Screener][Castellano][Romance]
01-ago-2012
papianton
Gold User
Tengo Ganas de Tí (2012) [DVD-Screener][Castellano][Romance]





T?TULO ORIGINAL: Tengo Ganas de T?
A?O: 2012
GENERO: Drama, romance
REPARTO: Mario Casas (Hache), Clara Lago (Gin), Mar?a Valverde (Babi), Marina Salas (Katina), Ferr?n Vilajosana (Luque), Diego Mart?n (Alejandro), Antonio Vel?zquez (Serpiente), Nerea Camacho (Daniela), Carme El?as (madre de Hache), Cristina Plazas (madre de Babi).


?Tengo ganas de ti? es la segunda parte de ?3 metros sobre el cielo?. Hache vuelve a casa despu?s de pasar una temporada en Londres, alejado del recuerdo imborrable de aquel primer amor con Babi. Mientras intenta reconstruir su vida, Gin, una chica de esp?ritu descarado, efervescente y vital, le hace creer que es posible revivir aquella magia. Pero, tarde o temprano, Hache tendr? que encontrarse con Babi?






Código HTML:
General

Format                                   : AVI
Format/Info                              : Audio Video Interleave
File size                                : 1.34 GiB
Duration                                 : 1h 58mn
Overall bit rate                         : 1 617 Kbps
Writing application                      : VirtualDubMod 1.5.10.2 (build 2540/release)
Writing library                          : VirtualDubMod build 2540/release

Video
ID                                       : 0
Format                                   : MPEG-4 Visual
Format profile                           : Advanced Simple@L5
Format settings, BVOP                    : 2
Format settings, QPel                    : No
Format settings, GMC                     : No warppoints
Format settings, Matrix                  : Default (MPEG)
Muxing mode                              : Packed bitstream
Codec ID                                 : XVID
Codec ID/Hint                            : XviD
Duration                                 : 1h 58mn
Bit rate                                 : 1 448 Kbps
Width                                    : 704 pixels
Height                                   : 288 pixels
Display aspect ratio                     : 2.40:1
Frame rate                               : 25.000 fps
Color space                              : YUV
Chroma subsampling                       : 4:2:0
Bit depth                                : 8 bits
Scan type                                : Progressive
Compression mode                         : Lossy
Bits/(Pixel*Frame)                       : 0.286
Stream size                              : 1.20 GiB (90%)
Writing library                          : XviD 64

Audio
ID                                       : 1
Format                                   : MPEG Audio
Format version                           : Version 1
Format profile                           : Layer 3
Codec ID                                 : 55
Codec ID/Hint                            : MP3
Duration                                 : 1h 58mn
Bit rate mode                            : Constant
Bit rate                                 : 160 Kbps
Channel(s)                               : 2 channels
Sampling rate                            : 44.1 KHz
Compression mode                         : Lossy
Stream size                              : 136 MiB (10%)
Alignment                                : Split accross interleaves
Interleave, duration                     : 40 ms (1.00 video frame)
Interleave, preload duration             : 500 ms







*DESCARGA AL MAXIMO, EL MEJOR*







RAPIDSHARE

Descomprimir con Winrar

Descargar Tengo Ganas de Tí (2012) [DVD-Screener][Castellano][Romance] Pelicula Gratis



Necesitás estar Registrado para dejar comentarios en Tengo Ganas de Tí (2012) [DVD-Screener][Castellano][Romance]

Información del Post

  • Puntos Puntos: 0 |
  • Visitas Visitas: 364 |
  • Autor Publicado por: papianton |
  • Categoría: Películas Gratis