[?REC]³ Génesis (2012) [720p DTS Castellano][VS][Terror]


Descargar [?REC]³ Génesis (2012) [720p DTS Castellano][VS][Terror] Película Gratis 1 link por Mega y Mediafire



Argentina Warez » Descargas Gratis » Películas Gratis [?REC]³ Génesis (2012) [720p DTS Castellano][VS][Terror]
01-ago-2012
papianton
Gold User
[?REC]³ Génesis (2012) [720p DTS Castellano][VS][Terror]





TÍTULO ORIGINAL: [?REC]³ Génesis (AKA [?REC] 3)
OTROS TÍTULOS: [REC]³ Génesis / REC 3: El Origen / [REC]³ El comienzo
AÑO: 2012
DURACIÓN: 80 min.
PAÍS: España
DIRECTOR: Paco Plaza
GUIÓN: Paco Plaza, Luís Berdejo
MÚSICA: Mikel Salas
FOTOGRAFÍA: Pablo Rosso
REPARTO: Leticia Dolera, Diego Martín, Mireia Ros, Ismael Martínez, Emilio Mencheta, Àlex Monner, Javier Botet, Ana Isabel Velásquez, Blai Llopis, Itziar Castro, Claire Baschet, Xavier Ruano, Borja Glez. Santaolalla
PRODUCTORA: Canal+ España / Filmax / Ono
GÉNERO: Terror | Comedia de terror. Zombis. Gore. Bodas. Precuela


Koldo y Clara están hechos el uno para el otro. Van a celebrar su enlace acompañados de sus seres queridos. Pero una negra sombra se cierne sobre ellos. En el día más feliz de sus vidas, el infierno va a desatarse. Precuela de la saga de terror [?REC].






Código HTML:
General

Format                                   : Matroska
Format version                           : Version 2
File size                                : 4.39 GiB
Duration                                 : 1h 20mn
Overall bit rate                         : 7 824 Kbps
Movie name                               : REC 3 Genesis 720p www.trackerhd.com
Encoded date                             : UTC 2012-07-19 23:59:22
Writing application                      : mkvmerge v4.9.1 ('Ich will') creado el Jul 11 2011 21:05:31
Writing library                          : libebml v1.2.1 + libmatroska v1.1.1

Video
ID                                       : 1
Format                                   : AVC
Format/Info                              : Advanced Video Codec
Format profile                           : High@L4.1
Format settings, CABAC                   : Yes
Format settings, ReFrames                : 9 frames
Codec ID                                 : V_MPEG4/ISO/AVC
Duration                                 : 1h 20mn
Bit rate                                 : 6 158 Kbps
Width                                    : 1 280 pixels
Height                                   : 720 pixels
Display aspect ratio                     : 16:9
Frame rate                               : 24.000 fps
Color space                              : YUV
Chroma subsampling                       : 4:2:0
Bit depth                                : 8 bits
Scan type                                : Progressive
Bits/(Pixel*Frame)                       : 0.278
Stream size                              : 3.45 GiB (79%)
Title                                    : REC 3 Genesis 720p www.todohdtv.com
Writing library                          : x264 core 125 r2200 999b753
Encoding settings                        : cabac=1 / ref=9 / deblock=1:-3:-3 / analyse=0x3:0x133 / me=umh / subme=10 / psy=1 / psy_rd=1.00:0.00 / mixed_ref=1 / me_range=32 / chroma_me=1 / trellis=2 / 8x8dct=1 / cqm=0 / deadzone=21,11 / fast_pskip=0 / chroma_qp_offset=-2 / threads=18 / lookahead_threads=3 / sliced_threads=0 / nr=0 / decimate=1 / interlaced=0 / bluray_compat=0 / constrained_intra=0 / bframes=8 / b_pyramid=2 / b_adapt=2 / b_bias=0 / direct=3 / weightb=1 / open_gop=0 / weightp=2 / keyint=240 / keyint_min=24 / scenecut=40 / intra_refresh=0 / rc_lookahead=60 / rc=crf / mbtree=1 / crf=17.0 / qcomp=0.75 / qpmin=0 / qpmax=69 / qpstep=4 / vbv_maxrate=40000 / vbv_bufsize=30000 / crf_max=0.0 / nal_hrd=none / ip_ratio=1.40 / aq=1:0.80
Language                                 : Spanish
Default                                  : Yes
Forced                                   : No

Audio
ID                                       : 2
Format                                   : DTS
Format/Info                              : Digital Theater Systems
Codec ID                                 : A_DTS
Duration                                 : 1h 20mn
Bit rate mode                            : Constant
Bit rate                                 : 1 510 Kbps
Channel(s)                               : 6 channels
Channel positions                        : Front: L C R, Side: L R, LFE
Sampling rate                            : 48.0 KHz
Bit depth                                : 24 bits
Compression mode                         : Lossy
Stream size                              : 867 MiB (19%)
Title                                    : DTS Castellano www.trackerhd.com
Language                                 : Spanish
Default                                  : Yes
Forced                                   : No



*DESCARGA AL MAXIMO, SIN CAPTCHAS, EL MEJOR*

Código:
http://sharpfile.com/radoy0yiotrh/r3.papianton720p.part01.rar.html
http://sharpfile.com/t0jmpgvf3w8r/r3.papianton720p.part02.rar.html
http://sharpfile.com/7sxsykzsglsn/r3.papianton720p.part03.rar.html
http://sharpfile.com/ook6e2tgglnd/r3.papianton720p.part04.rar.html
http://sharpfile.com/qbn4epbtqfg0/r3.papianton720p.part05.rar.html
http://sharpfile.com/7lndsc9v0nb3/r3.papianton720p.part06.rar.html
http://sharpfile.com/amjm3nr896nq/r3.papianton720p.part07.rar.html
http://sharpfile.com/4yb601tzgtn0/r3.papianton720p.part08.rar.html
http://sharpfile.com/ezpvpdrw96yb/r3.papianton720p.part09.rar.html


Código:
http://rapidgator.net/file/29280047/r3.papianton720p.part01.rar.html
http://rapidgator.net/file/29280045/r3.papianton720p.part02.rar.html
http://rapidgator.net/file/29280046/r3.papianton720p.part03.rar.html
http://rapidgator.net/file/29280044/r3.papianton720p.part04.rar.html
http://rapidgator.net/file/29280049/r3.papianton720p.part05.rar.html
http://rapidgator.net/file/29280050/r3.papianton720p.part06.rar.html
http://rapidgator.net/file/29280057/r3.papianton720p.part07.rar.html
http://rapidgator.net/file/29280054/r3.papianton720p.part08.rar.html
http://rapidgator.net/file/29278756/r3.papianton720p.part09.rar.html


Código:
http://ul.to/4xrex8qk/r3.papianton720p.part06.rar
http://ul.to/xwwkhwfe/r3.papianton720p.part02.rar
http://ul.to/xw5529vj/r3.papianton720p.part08.rar
http://ul.to/i3a65279/r3.papianton720p.part04.rar
http://ul.to/4pzjsv3a/r3.papianton720p.part09.rar
http://ul.to/hiakbaqm/r3.papianton720p.part05.rar
http://ul.to/jg4mu9ta/r3.papianton720p.part07.rar
http://ul.to/ey7fgsah/r3.papianton720p.part03.rar
http://ul.to/w7hxff33/r3.papianton720p.part01.rar


Código:
http://turbobit.net/553pn85bxil2.html
http://turbobit.net/6avk73y1klj0.html
http://turbobit.net/e1dwewqrxlsj.html
http://turbobit.net/mr3qsrbpvyd6.html
http://turbobit.net/n4otj3vfr7mg.html
http://turbobit.net/ui7izl1jpe8s.html
http://turbobit.net/v6f8volz0x93.html
http://turbobit.net/yw9ofhf4kpyw.html
http://turbobit.net/jlqrn29svxto.html
Descomprimir con Winrar

Descargar [?REC]³ Génesis (2012) [720p DTS Castellano][VS][Terror] Pelicula Gratis



Necesitás estar Registrado para dejar comentarios en la descarga [?REC]³ Génesis (2012) [720p DTS Castellano][VS][Terror]

Información del Post

  • Puntos Puntos: 0 |
  • Visitas Visitas: 182 |
  • Autor Publicado por: papianton |
  • Categoría: Películas Gratis