Mil palabras (A thousand words)(2012) [DVDRip][Castellano][Comedia Dramática]


Descargar Mil palabras (A thousand words)(2012) [DVDRip][Castellano][Comedia Dramática] Película Gratis 1 link



Argentina Warez » Descargas Gratis » Películas Gratis Mil palabras (A thousand words)(2012) [DVDRip][Castellano][Comedia Dramática]
02-ago-2012
nihbez
Gold User
Mil palabras (A thousand words)(2012) [DVDRip][Castellano][Comedia Dramática]





TÍTULO ORIGINAL: A thousand words
AÑO: 2012
GENERO: Comedia dramática.
REPARTO: Eddie Murphy, Ariel Winter, Kerry Washington, Allison Janney, Cliff Curtis, Clark Duke.
SINOPSIS: “Mil palabras (A thousand words)”, que protagonizará Eddie Murphy, contará la historia de un hombre bastante hablador que descubre que, a partir de un momento determinado, sólo podrá pronunciar mil palabras, ya que, si rebasa esa cifra, fallecerá.




Código:
Mil.Palabras.DVDRip.fanatico.avi
Format                                   : AVI
Format/Info                              : Audio Video Interleave
File size                                : 1.41 GiB
Duration                                 : 1h 31mn
Overall bit rate                         : 2 212 Kbps
Writing application                      : VirtualDubMod 1.5.10.2 (build 2540/release)
Writing library                          : VirtualDubMod build 2540/release

Video
ID                                       : 0
Format                                   : MPEG-4 Visual
Format profile                           : Advanced Simple@L5
Format settings, BVOP                    : 2
Format settings, QPel                    : No
Format settings, GMC                     : No warppoints
Format settings, Matrix                  : Default (H.263)
Codec ID                                 : XVID
Codec ID/Hint                            : XviD
Duration                                 : 1h 31mn
Bit rate                                 : 1 754 Kbps
Width                                    : 720 pixels
Height                                   : 304 pixels
Display aspect ratio                     : 2.35:1
Frame rate                               : 23.976 fps
Color space                              : YUV
Chroma subsampling                       : 4:2:0
Bit depth                                : 8 bits
Scan type                                : Progressive
Compression mode                         : Lossy
Bits/(Pixel*Frame)                       : 0.334
Stream size                              : 1.12 GiB (79%)
Writing library                          : XviD 1.2.1 (UTC 2008-12-04)

Audio
ID                                       : 1
Format                                   : AC-3
Format/Info                              : Audio Coding 3
Mode extension                           : CM (complete main)
Codec ID                                 : 2000
Duration                                 : 1h 31mn
Bit rate mode                            : Constant
Bit rate                                 : 448 Kbps
Channel(s)                               : 6 channels
Channel positions                        : Front: L C R, Side: L R, LFE
Sampling rate                            : 48.0 KHz
Bit depth                                : 16 bits
Compression mode                         : Lossy
Stream size                              : 293 MiB (20%)
Alignment                                : Split accross interleaves
Interleave, duration                     : 42 ms (1.00 video frame)
Interleave, preload duration             : 500 ms






Código:
http://uploadjet.net/vb72xgzqxsdw/Mil.Palabras.DVDRip.fanatico.avi.part1.rar.htm
http://uploadjet.net/4684i8lthmsq/Mil.Palabras.DVDRip.fanatico.avi.part2.rar.htm
http://uploadjet.net/aux4aof77fu3/Mil.Palabras.DVDRip.fanatico.avi.part3.rar.htm

Descargar Mil palabras (A thousand words)(2012) [DVDRip][Castellano][Comedia Dramática] Pelicula Gratis



Necesitás estar Registrado para dejar comentarios en Mil palabras (A thousand words)(2012) [DVDRip][Castellano][Comedia Dramática]

Información del Post