El Dictador (2012) | DVDRip XviD AVI | Español Latino | Comedia | PutLocKer |


Descargar El Dictador (2012) | DVDRip XviD AVI | Español Latino | Comedia | PutLocKer | Película Gratis 1 link por Mega y Mediafire



Argentina Warez » Descargas Gratis » Películas Gratis El Dictador (2012) | DVDRip XviD AVI | Español Latino | Comedia | PutLocKer |
09-ago-2012
camix2008
Premier User
El Dictador (2012) | DVDRip XviD AVI | Español Latino | Comedia | PutLocKer |
El Dictador (2012) | DVDRip XviD AVI | Español Latino | Comedia | PutLocKer |





El General Almirante Haffaz Aladeen (Sacha Baron Cohen) es un dictador capaz de arriesgar su vida para impedir que la democracia se establezca en el país al que oprime tan amorosamente y con tanto cariño. Rico en petróleo y bastante aislado, el estado norteafricano de Wadiya lleva siendo gobernado por el vehementemente anti-occidental Aladeen desde que éste tenía seis años, cuando fue nombrado Líder Supremo tras la desafortunada muerte de su padre, muerto por desgracia en un accidente de caza, alcanzado por 97 balas y una granada de mano. Desde que accedió al poder absoluto, el consejero de más confianza de Aladeen es su tío Tamir (Ben Kingsley), quien ejerce de Jefe de la Policía Secreta, Jefe de Seguridad y Proveedor de Mujeres. Por desgracia para Aladeen y sus consejeros, el muy vilipendiado Occidente ha comenzado a meter las narices en los asuntos de Wadiya, y las Naciones Unidas han sancionado repetidas veces al país en la última década, pero el Dictador no va a consentir que un inspector del Consejo de Seguridad entre en sus instalaciones secretas de armamento… ¿es que acaso no saben lo que quiere decir “secreto”? Pero después de que un intento de asesinarle le cueste la vida a otro de los acólitos del Líder Supremo, Tamir convence a Aladeen de que vaya a Nueva York a solucionar la cuestión de las Naciones Unidas.



TÍTULO ORIGINAL: The Dictator
OTROS TÍTULOS: El Dictador
AÑO: 2012
DURACIÓN: 83 min.
PAÍS: USA
DIRECTOR: Larry Charles
GUIÓN: Sacha Baron Cohen, Alec Berg, David Mandel, Jeff Schaffer
MÚSICA: Erran Baron Cohen
FOTOGRAFÍA: Lawrence Sher
REPARTO: Sacha Baron Cohen, Anna Faris, Ben Kingsley, Jason Mantzoukas, Bobby Lee, Anthony Mangano, Jeff Grossman, Megan Fox, John C. Reilly, Edward Norton
PRODUCTORA: Paramount Pictures
GÉNERO: Comedia | Comedia negra. Parodia. Política



Formato: AVI
Calidad: DVDRip | XviD
Tamaño: 702 MB
Audio 1:Audios: Español Latino
Subtítulos:Español
Servidor:
Uploader:Camix2012
Código:
Format                                   : AVI
Format/Info                              : Audio Video Interleave
File size                                : 702 MiB
Duration                                 : 1h 23mn
Overall bit rate                         : 1 179 Kbps
Movie name                               : The.Dictator.2012.BDRip.LATiNO.XviD
Director                                 : WwW.IntercambiosVirtuales.ORG
Genre                                    : Comedia
Recorded date                            : 09-08-2012
Writing application                      : VirtualDubMod 1.5.10.2 (build 2542/release)
Writing library                          : VirtualDubMod build 2542/release
Copyright                                : WwW.IntercambiosVirtuales.ORG

Video
ID                                       : 0
Format                                   : MPEG-4 Visual
Format profile                           : Advanced Simple@L5
Format settings, BVOP                    : 2
Format settings, QPel                    : No
Format settings, GMC                     : No warppoints
Format settings, Matrix                  : Default (H.263)
Codec ID                                 : XVID
Codec ID/Hint                            : XviD
Duration                                 : 1h 23mn
Bit rate                                 : 1 042 Kbps
Width                                    : 640 pixels
Height                                   : 256 pixels
Display aspect ratio                     : 2.500
Frame rate                               : 23.976 fps
Color space                              : YUV
Chroma subsampling                       : 4:2:0
Bit depth                                : 8 bits
Scan type                                : Progressive
Compression mode                         : Lossy
Bits/(Pixel*Frame)                       : 0.265
Stream size                              : 621 MiB (88%)
Writing library                          : XviD 1.2.1 (UTC 2008-12-04)

Audio
ID                                       : 1
Format                                   : MPEG Audio
Format version                           : Version 1
Format profile                           : Layer 3
Mode                                     : Joint stereo
Mode extension                           : MS Stereo
Codec ID                                 : 55
Codec ID/Hint                            : MP3
Duration                                 : 1h 23mn
Bit rate mode                            : Constant
Bit rate                                 : 128 Kbps
Channel(s)                               : 2 channels
Sampling rate                            : 48.0 KHz
Compression mode                         : Lossy
Stream size                              : 76.3 MiB (11%)
Alignment                                : Aligned on interleaves
Interleave, duration                     : 42 ms (1.00 video frame)
Interleave, preload duration             : 504 ms
Writing library                          : LAME3.99r
Encoding settings                        : -m j -V 4 -q 2 -lowpass 17 -b 128















se que los acortadores son molestos
pero es la única forma de que siga subiendo a este servidor
(Abrir el link en tu Navegador, Eperar 8 Segundos Y Pulsar AQUI)



Links
http://82949272.linkbucks.com

1 Link de 702 MB
Contraseña:camix

Descargar El Dictador (2012) | DVDRip XviD AVI | Español Latino | Comedia | PutLocKer | Pelicula Gratis


05-dic-2012
tacua_breakdance
White User
Re: El Dictador (2012) | DVDRip XviD AVI | Español Latino | Comedia | PutLocKer |
descargando gracias!!!!!!!!!!!!!!!!!!!!
28-ene-2013
marcosky
Platinum User
Re: El Dictador (2012) | DVDRip XviD AVI | Español Latino | Comedia | PutLocKer |
Graciassssss
09-feb-2013
alitasia
Platinum User
Re: El Dictador (2012) | DVDRip XviD AVI | Español Latino | Comedia | PutLocKer |
Mil gracias, me la llevo
26-mar-2013
newbeatlee
White User
Re: El Dictador (2012) | DVDRip XviD AVI | Español Latino | Comedia | PutLocKer |
gracias por la peli parece entretenida
saludos desde mexico
30-abr-2013
antoniorangel
Advanced User
Re: El Dictador (2012) | DVDRip XviD AVI | Español Latino | Comedia | PutLocKer |
gracias descargando

Necesitás estar Registrado para dejar comentarios en El Dictador (2012) | DVDRip XviD AVI | Español Latino | Comedia | PutLocKer |

Información del Post

  • Puntos Puntos: 0 |
  • Visitas Visitas: 1770 |
  • Autor Publicado por: camix2008 |
  • Categoría: Películas Gratis