Argentina Warez » Descargas Gratis » Películas Gratis La Momia, la Tumba del Emperador Dragón [2008][BD-Rip 1080p AVC-Intra MKV][DTS Esp/Ing]
12-ago-2012
ricjosep
Silver User
La Momia, la Tumba del Emperador Dragón [2008][BD-Rip 1080p AVC-Intra MKV][DTS Esp/Ing]
La Momia, la Tumba del Emperador Dragón:



Título: La Momia, la Tumba del Emperador Dragón
Título Original: The Mummy, Tomb of the Dragon Emperor
País: EEUU
Duración: 111 min
Año: 2008
Género: Aventuras, Acción
Servidor: Megaupload, UploadStation, Filejungle y Fileserve
Codec: AVC-Intra 100
Audio: Español Digital Theater System (DTS 768 kbps)
Audio: Inglés Digital Theater System (DTS 768 kbps)
Subtitulos: Inglés y Español
Resolución: 1920x1080
Tamaño: 7.54 GB
Formato: MKV (.mkv)
Nº de Partes: 18 + 12 (458.7MB)

Media Info:

Spoiler
General
Format : Matroska
Format version : Version 2
File size : 7.54 GiB
Duration : 1h 51mn
Overall bit rate : 9 670 Kbps
Movie name : La Momia, la Tumba del Emperador Dragon by Ricjosep
Encoded date : UTC 2011-10-10 22:35:26
Writing application : mkvmerge v4.8.0 ('I Got The...') creado el May 24 2011 03:12:58
Writing library : libebml v1.2.0 + libmatroska v1.1.0

Video
ID : 1
Format : AVC
Format/Info : Advanced Video Codec
Format profile : High@L4.1
Format settings, CABAC : Yes
Format settings, ReFrames : 3 frames
Format settings, GOP : M=3, N=23
Muxing mode : Header stripping
Codec ID : V_MPEG4/ISO/AVC
Duration : 1h 51mn
Bit rate mode : Variable
Bit rate : 7 968 Kbps
Maximum bit rate : 35.0 Mbps
Width : 1 920 pixels
Height : 1 080 pixels
Display aspect ratio : 16:9
Frame rate : 23.976 fps
Standard : NTSC
Color space : YUV
Chroma subsampling : 4:2:0
Bit depth : 8 bits
Scan type : Progressive
Bits/(Pixel*Frame) : 0.160
Stream size : 6.22 GiB (82%)
Color primaries : BT.709-5, BT.1361, IEC 61966-2-4, SMPTE RP177
Transfer characteristics : BT.709-5, BT.1361
Matrix coefficients : BT.709-5, BT.1361, IEC 61966-2-4 709, SMPTE RP177

Audio #1
ID : 2
Format : DTS
Format/Info : Digital Theater Systems
Muxing mode : Header stripping
Codec ID : A_DTS
Duration : 1h 51mn
Bit rate mode : Constant
Bit rate : 755 Kbps
Channel(s) : 6 channels
Channel positions : Front: L C R, Side: L R, LFE
Sampling rate : 48.0 KHz
Bit depth : 24 bits
Compression mode : Lossy
Stream size : 603 MiB (8%)
Title : Castellano
Language : Spanish

Audio #2
ID : 3
Format : DTS
Format/Info : Digital Theater Systems
Muxing mode : Header stripping
Codec ID : A_DTS
Duration : 1h 51mn
Bit rate mode : Constant
Bit rate : 755 Kbps
Channel(s) : 6 channels
Channel positions : Front: L C R, Side: L R, LFE
Sampling rate : 48.0 KHz
Bit depth : 24 bits
Compression mode : Lossy
Stream size : 603 MiB (8%)
Title : Ingles
Language : English

Text #1
ID : 4
Format : PGS
Muxing mode : zlib
Codec ID : S_HDMV/PGS
Codec ID/Info : The same subtitle format used on BDs/HD-DVDs
Title : Español
Language : Spanish

Text #2
ID : 5
Format : PGS
Muxing mode : zlib
Codec ID : S_HDMV/PGS
Codec ID/Info : The same subtitle format used on BDs/HD-DVDs
Title : Ingles
Language : English


Sinopsis:

Han pasado diez años, Rick O'Connell (Brendan Fraser) se ha casado con Evelyn (Rachel Weisz), y ambos son padres del pequeño Alex (Freddie Boath), de ocho años. Cuando, tras una serie de acontecimientos, la momia del antiguo sacerdote egipcio Im-Ho-Tep es resucitada por una extraña secta en el British Museum, y la maldición milenaria del Rey Escorpión -que seis mil años atrás traicionó al dios Anubis- lo devuelve a la vida, el choque entre ambas fuerzas malignas desencadenará el caos en el mundo... si Rick y Evelyn no consiguen evitarlo.

Enlaces:



http://ncrypt.in/folder-yRnjq1hl

Muestras:



Descargar La Momia, la Tumba del Emperador Dragón [2008][BD-Rip 1080p AVC-Intra MKV][DTS Esp/Ing] Pelicula Gratis


12-ago-2012
escorpionariel
Premium User
Re: La Momia, la Tumba del Emperador Dragón [2008][BD-Rip 1080p AVC-Intra MKV][DTS Esp/Ing]
Gracias !!

Necesitás estar Registrado para dejar comentarios en La Momia, la Tumba del Emperador Dragón [2008][BD-Rip 1080p AVC-Intra MKV][DTS Esp/Ing]

Información del Post