Colosio: El Asesinato (2012) DVDRip


Descargar Colosio: El Asesinato (2012) DVDRip Película Gratis 1 link por Mega y Mediafire



Argentina Warez » Descargas Gratis » Películas Gratis Colosio: El Asesinato (2012) DVDRip
27-ago-2012
Ren0
New User
Colosio: El Asesinato (2012) DVDRip




Es el año de 1994 en México. En el mes de marzo el candidato presidencial del partido gobernante es asesinado. El asesino es apresado pero nadie sabe quién está detrás y circulan rumores de una conspiración. Andrés Vázquez, un experto en inteligencia, es comisionado para llevar a cabo una investigación secreta y paralela a la oficial. Pero otro experto agente ha recibido la orden de eliminar a todos los testigos y desaparecer las evidencias del asesinato. Conforme Andrés se va acercando a la verdad, también pone en peligro su vida y la de sus seres queridos.



Código:
http://www.imdb.com/title/tt2398143/
Genere: Thriller
IMDB Rating: 7.7/10 from 346 users
Directed by: Carlos Bolado
Starring: José María Yazpik, Daniel Giménez Cacho and Kate del Castill
o

Código:
Format                                   : AVI
Format/Info                              : Audio Video Interleave
File size                                : 760 MiB
Duration                                 : 1h 42mn
Overall bit rate                         : 1 042 Kbps
Writing application                      : Lavf52.93.0

Video
ID                                       : 0
Format                                   : xvid
Codec ID                                 : xvid
Duration                                 : 1h 42mn
Bit rate                                 : 900 Kbps
Width                                    : 720 pixels
Height                                   : 480 pixels
Display aspect ratio                     : 3:2
Frame rate                               : 29.970 fps
Standard                                 : NTSC
Bits/(Pixel*Frame)                       : 0.087
Stream size                              : 657 MiB (86%)

Audio
ID                                       : 1
Format                                   : MPEG Audio
Format version                           : Version 1
Format profile                           : Layer 3
Mode                                     : Joint stereo
Mode extension                           : MS Stereo
Codec ID                                 : 55
Codec ID/Hint                            : MP3
Duration                                 : 1h 42mn
Bit rate mode                            : Constant
Bit rate                                 : 128 Kbps
Channel(s)                               : 2 channels
Sampling rate                            : 44.1 KHz
Compression mode                         : Lossy
Stream size                              : 93.4 MiB (12%)
Alignment                                : Aligned on interleaves
Interleave, duration                     : 26 ms (0.78 video frame)
Writing library                          : LAME

















Código:
Rapidgator:

http://rapidgator.net/file/35837913/CLSIO2012DRP0812.part1.rar.html
http://rapidgator.net/file/35837778/CLSIO2012DRP0812.part2.rar.html

Uploaded:

http://ul.to/pf79v89o
http://ul.to/5exedasw

Freakshare:

http://freakshare.com/files/144jf55l/CLSIO2012DRP0812.part1.rar.html
http://freakshare.com/files/rynakxe8/CLSIO2012DRP0812.part2.rar.html

Bitshare:
http://bitshare.com/files/70rncyf2/CLSIO2012DRP0812.part1.rar.html
http://bitshare.com/files/g4375h1t/CLSIO2012DRP0812.part2.rar.html

Turbobit:

http://turbobit.net/khmtthokiwgb.html
http://turbobit.net/fhsjceox3zla.html

Descargar Colosio: El Asesinato (2012) DVDRip Pelicula Gratis


27-ago-2012
clementemarreroruz
White User
Re: Colosio: El Asesinato (2012) DVDRip
ojala venga en buena calidad gracias por el aporte
28-ago-2012
manotas03
New User
Re: Colosio: El Asesinato (2012) DVDRip
definitivamente excelente, muchas gracias
15-oct-2012
4gu5t1n
Black User
Re: Colosio: El Asesinato (2012) DVDRip
Muy buena gracias
03-nov-2012
martina_yunikua
New User
Re: Colosio: El Asesinato (2012) DVDRip
no la pude descargar

Necesitás estar Registrado para dejar comentarios en Colosio: El Asesinato (2012) DVDRip

Información del Post