The Amazing Spiderman (2012) [DVDRip][Español Latino][PL/UL]


Descargar The Amazing Spiderman (2012) [DVDRip][Español Latino][PL/UL] Película Gratis 1 link



Argentina Warez » Descargas Gratis » Películas Gratis The Amazing Spiderman (2012) [DVDRip][Español Latino][PL/UL]
24-oct-2012
Basch4553
Silver User
The Amazing Spiderman (2012) [DVDRip][Español Latino][PL/UL]
The Amazing Spiderman (2012) [DVDRip][Español Latino][PL/UL]




'The Amazing Spider-Man' es la historia de Peter Parker (Andrew Garfield), un estudiante de secundaria que fue abandonado por sus padres cuando era niño, dejándolo a cargo de su tío Ben (Martin Sheen) y su tía May (Sally Field). Como la mayoría de los adolescentes de su edad, Peter trata de averiguar quién es y qué quiere llegar a ser. Peter también está encontrando su camino con su primer amor de secundaria, Gwen Stacy (Emma Stone), y juntos luchan por su amor con compromiso. Cuando Peter descubre un misterioso maletín que perteneció a su padre, comienza la búsqueda para entender la desaparición de sus padres, una búsqueda que le lleva directamente a Oscorp, el laboratorio del Dr Curt Connors (Rhys Ifans), ex-compañero de trabajo de su padre. Mientras Spider-Man se encuentra en plena colisión con el alter-ego de Connors, el Lagarto, Peter hará elecciones que alterarán sus opciones para usar sus poderes y darán forma a un destino que le convertirá en un héroe.



Calidad: DVDRip
Nombre: The.Amazing.Spider-Man.2012.DVDRip.LATiNO.XviD
Tamaño: 702 MB
Video: XViD | 640 × 256 pixels | 587 Kbps
Audio: English | MPEG Audio | 128 Kbps
Duración: 2h 10mn
Subtítulos: Español
Género: Acción | Aventura | Fantasia
Director: Marc Webb
Reparto: Andrew Garfield, Emma Stone, Rhys Ifans, Sally Field, Martin Sheen, Denis Leary, Campbell Scott, Embeth Davidtz, Irrfan Khan, C. Thomas Howell, Stan Lee


Detalles:
Código:
General
Complete name                            : The.Amazing.Spider-Man.2012.DVDRip.LATiNO.XviD.Basch4553.avi
Format                                   : AVI
Format/Info                              : Audio Video Interleave
File size                                : 702 MiB
Duration                                 : 2h 16mn
Overall bit rate                         : 720 Kbps
Movie name                               : The.Amazing.Spider-Man.2012.DVDRip.LATiNO.XviD
Movie name/Country                       : USA
Production designer                      : 2012
Recorded date                            : 23-10-2012

Video
ID                                       : 0
Format                                   : MPEG-4 Visual
Format profile                           : Advanced Simple@L5
Format settings, BVOP                    : 2
Format settings, QPel                    : No
Format settings, GMC                     : No warppoints
Format settings, Matrix                  : Default (H.263)
Codec ID                                 : XVID
Codec ID/Hint                            : XviD
Duration                                 : 2h 16mn
Bit rate                                 : 587 Kbps
Width                                    : 640 pixels
Height                                   : 256 pixels
Display aspect ratio                     : 2.500
Frame rate                               : 23.976 fps
Color space                              : YUV
Chroma subsampling                       : 4:2:0
Bit depth                                : 8 bits
Scan type                                : Progressive
Compression mode                         : Lossy
Bits/(Pixel*Frame)                       : 0.149
Stream size                              : 572 MiB (81%)
Writing library                          : XviD 1.2.1 (UTC 2008-12-04)

Audio
ID                                       : 1
Format                                   : MPEG Audio
Format version                           : Version 1
Format profile                           : Layer 3
Mode                                     : Joint stereo
Mode extension                           : MS Stereo
Codec ID                                 : 55
Codec ID/Hint                            : MP3
Duration                                 : 2h 16mn
Bit rate mode                            : Constant
Bit rate                                 : 128 Kbps
Channel(s)                               : 2 channels
Sampling rate                            : 48.0 KHz
Compression mode                         : Lossy
Stream size                              : 125 MiB (18%)
Alignment                                : Aligned on interleaves
Interleave, duration                     : 167 ms (4.00 video frames)
Interleave, preload duration             : 216 ms
Title                                    : The.Amazing.Spider-Man.2012.DVD.LATiNO 128Kbps www.intercambiosvirtuales.org
Writing library                          : LAME3.99r
Encoding settings                        : -m j -V 4 -q 2 -lowpass 17 -b 128
Captura:
Spoiler




Links Intercambiables:
Las Partes de PL hay que renombralas para poder extraer el archivo


Links 200 MB:
http://linkto.net/?20296201275087970a7e83d7.42375877
http://linkto.net/?5389900775087970a8446d7.29497035
http://linkto.net/?3598565025087970a85e9c6.27207116
La parte 1 la pueden descargar de cualquiera de los demás servidores


1 Link:
http://linkto.net/?2520437615087913817dbd7.07947967
Links 200 MB:
http://linkto.net/?216559003508791210d1517.34359502
http://linkto.net/?191219590850879121147c79.84000256
http://linkto.net/?11042299065087912116a927.85062373
http://linkto.net/?143616224250879121196412.18996403


1 Link:
http://linkto.net/?85963321250879333410f19.66303963

Links 200 MB:
http://linkto.net/?107297335750879308671da6.21632063
http://linkto.net/?449971727508793086daf51.54963221
http://linkto.net/?125443382550879308703966.44350745
http://linkto.net/?20200629450879308722ca9.16404920

¡Saludos!

Descargar The Amazing Spiderman (2012) [DVDRip][Español Latino][PL/UL] Pelicula Gratis



Necesitás estar Registrado para dejar comentarios en The Amazing Spiderman (2012) [DVDRip][Español Latino][PL/UL]

Información del Post

  • Puntos Puntos: 0 |
  • Visitas Visitas: 720 |
  • Autor Publicado por: Basch4553 |
  • Categoría: Películas Gratis

Posts relacionados con The Amazing Spiderman (2012) [DVDRip][Español Latino][PL/UL]