Argentina Warez » Descargas Gratis » Películas Gratis Buscando a Nemo 3D SBS [1080p][LATINO AC3 5.1][En-US][Sub][Animación][2012]
28-oct-2012
cadagoto
Premium User
Buscando a Nemo 3D SBS [1080p][LATINO AC3 5.1][En-US][Sub][Animación][2012]

Buscando a Nemo 3D SBS [1080p][LATINO AC3 5.1][En-US][Sub][Animación][2012]


Ficha Técnica
Título: Buscando a Nemo 3D
Título original: Finding Nemo
País: USA, Australia
Estreno en USA: 14/09/2012
Estreno en España: 01/02/2013
Productora: Disney•Pixar
Director: Andrew Stanton, Lee Unkrich
Guión: Andrew Stanton, Lee Unkrich
Reparto: (Voces de) Albert Brooks, Ellen DeGeneres, Alexander Gould, Willem Dafoe, Geoffrey Rush
Calificación: Apta para todos los públicos

Sinopsis
En esta impactante aventura submarina, cargada con memorables personajes cómicos y mucha emoción, “Buscando a Nemo” sigue el trascendental viaje de un pez payaso sobreprotector llamado Marlin (con la voz de Albert Brooks) y su joven hijo Nemo (con la voz de Alexander Gould). Cuando ambos se ven separados en la gran barrera de coral, Nemo será llevado lejos de su hogar en el océano y terminará en un acuario en el consultorio de un dentista. Impulsado por la compañía de Dory (con la voz de Ellen DeGeneres), una amigable pero olvidadiza pez cirujano azul, Marlin se embarcará en un peligroso viaje y terminará siendo el improbable héroe de una increíble aventura para rescatar a su hijo; que por su parte también tramará un par de osados planes para regresar a casa.

Datos Técnicos
Código:
::::...CadagotoHD...::::Solo Aportes Exclusivos !
General
Complete name                    : C:\Buscando A Nemo SBS\Buscando A Nemo SBS 1080p Español Latino AC3 5.1 CadagotoHD.mkv
Format                           : Matroska
Format version                   : Version 2
File size                        : 8.80 GiB
Duration                         : 1h 40mn
Overall bit rate                 : 12.5 Mbps
Movie name                       : :::....CadagotoHD....::: * Aportes Exclusivos*
Encoded date                     : UTC 2012-10-29 00:52:34
Writing application              : mkvmerge v4.4.0 ('Die Wiederkehr') built on Oct 31 2010 21:52:48
Writing library                  : libebml v1.0.0 + libmatroska v1.0.0

Video
ID                               : 1
Format                           : AVC
Format/Info                      : Advanced Video Codec
Format profile                   : High@L4.1
Format settings, CABAC           : Yes
Format settings, ReFrames        : 2 frames
Muxing mode                      : Header stripping
Codec ID                         : V_MPEG4/ISO/AVC
Duration                         : 1h 40mn
Bit rate                         : 10.3 Mbps
Width                            : 1 920 pixels
Height                           : 1 080 pixels
Display aspect ratio             : 16:9
Frame rate                       : 23.976 fps
Color space                      : YUV
Chroma subsampling               : 4:2:0
Bit depth                        : 8 bits
Scan type                        : Progressive
Bits/(Pixel*Frame)               : 0.207
Stream size                      : 7.27 GiB (83%)
Title                            : :::....CadagotoHD....::: * Aportes Exclusivos*
Writing library                  : x264 core
Default                          : Yes
Forced                           : No
Color primaries                  : BT.709-5, BT.1361, IEC 61966-2-4, SMPTE RP177
Transfer characteristics         : BT.709-5, BT.1361
Matrix coefficients              : BT.709-5, BT.1361, IEC 61966-2-4 709, SMPTE RP177

Audio #1
ID                               : 2
Format                           : AC-3
Format/Info                      : Audio Coding 3
Mode extension                   : CM (complete main)
Muxing mode                      : Header stripping
Codec ID                         : A_AC3
Duration                         : 1h 40mn
Bit rate mode                    : Constant
Bit rate                         : 640 Kbps
Channel(s)                       : 6 channels
Channel positions                : Front: L C R, Side: L R, LFE
Sampling rate                    : 48.0 KHz
Bit depth                        : 16 bits
Compression mode                 : Lossy
Stream size                      : 462 MiB (5%)
Title                            : :::....CadagotoHD....::: Español Latino 5.1
Language                         : Spanish
Default                          : Yes
Forced                           : Yes

Audio #2
ID                               : 3
Format                           : AC-3
Format/Info                      : Audio Coding 3
Mode extension                   : CM (complete main)
Muxing mode                      : Header stripping
Codec ID                         : A_AC3
Duration                         : 1h 40mn
Bit rate mode                    : Constant
Bit rate                         : 640 Kbps
Channel(s)                       : 6 channels
Channel positions                : Front: L C R, Side: L R, LFE
Sampling rate                    : 48.0 KHz
Bit depth                        : 16 bits
Compression mode                 : Lossy
Stream size                      : 462 MiB (5%)
Title                            : :::....CadagotoHD....::: Ingles AC3 5.1
Language                         : English
Default                          : No
Forced                           : No

Audio #3
ID                               : 4
Format                           : AC-3
Format/Info                      : Audio Coding 3
Mode extension                   : CM (complete main)
Muxing mode                      : Header stripping
Codec ID                         : A_AC3
Duration                         : 1h 40mn
Bit rate mode                    : Constant
Bit rate                         : 640 Kbps
Channel(s)                       : 6 channels
Channel positions                : Front: L C R, Side: L R, LFE
Sampling rate                    : 48.0 KHz
Bit depth                        : 16 bits
Compression mode                 : Lossy
Stream size                      : 462 MiB (5%)
Title                            : :::....CadagotoHD....::: Frances AC3 5.1
Language                         : French
Default                          : No
Forced                           : No

Text
ID                               : 5
Format                           : UTF-8
Codec ID                         : S_TEXT/UTF8
Codec ID/Info                    : UTF-8 Plain Text
Title                            : Sub
Default                          : Yes
Forced                           : Yes

Menu
00:00:00.000                     : en:(01)00:00:00:000
00:04:18.716                     : en:(02)00:04:18:716
00:05:35.668                     : en:(03)00:05:35:668
00:11:17.802                     : en:(04)00:11:17:802
00:12:16.277                     : en:(05)00:12:16:277
00:14:08.847                     : en:(06)00:14:08:847
00:16:29.279                     : en:(07)00:16:29:279
00:18:50.337                     : en:(08)00:18:50:337
00:25:31.988                     : en:(09)00:25:31:988
00:30:54.227                     : en:(10)00:30:54:227
00:33:01.646                     : en:(11)00:33:01:646
00:36:11.836                     : en:(12)00:36:11:836
00:40:19.166                     : en:(13)00:40:19:166
00:44:58.278                     : en:(14)00:44:58:278
00:48:12.389                     : en:(15)00:48:12:389
00:51:28.418                     : en:(16)00:51:28:418
00:56:07.030                     : en:(17)00:56:07:030
01:00:55.902                     : en:(18)01:00:55:902
01:05:20.666                     : en:(19)01:05:20:666
01:07:02.101                     : en:(20)01:07:02:101
01:08:30.147                     : en:(21)01:08:30:147
01:13:19.436                     : en:(22)01:13:19:436
01:14:15.200                     : en:(23)01:14:15:200
01:16:00.097                     : en:(24)01:16:00:097
01:18:41.299                     : en:(25)01:18:41:299
01:21:57.621                     : en:(26)01:21:57:621
01:24:29.481                     : en:(27)01:24:29:481
01:26:54.334                     : en:(28)01:26:54:334
01:29:26.611                     : en:(29)01:29:26:611
01:30:51.362                     : en:(30)01:30:51:362
01:32:42.974                     : en:(31)01:32:42:974
01:33:24.265                     : en:(32)01:33:24:265
01:40:53.714                     : en:(33)01:40:53:714
::::...CadagotoHD...::::Aportes únicos En La Web!













Links De 500 Mb!
(Abrir el link en tu Navegador, Eperar 8 Segundos Y Pulsar AQUI)

(Luego tendrás opcion de descargar DLC O Cargar Enlaces con Jdowload Abierto)
¡Descargar AQUI!
Opcion 1
http://ad620848.miniurls.co


Opcion2
http://3c67f7b7.tinylinks.co






Deseas Peliculas 720p - 1080p - 3D SBS - BluRay BD25 En Español Latino?

¡Solo Tienes Que Seguirme ... CadagotoHD Siempre Lo Mejor en HD De La Web!

Descargar Buscando a Nemo 3D SBS [1080p][LATINO AC3 5.1][En-US][Sub][Animación][2012] Pelicula Gratis


01-abr-2013
ironzark
White User
Re: Buscando a Nemo 3D SBS [1080p][LATINO AC3 5.1][En-US][Sub][Animación][2012]
Los enlaces estan caidos

Necesitás estar Registrado para dejar comentarios en Buscando a Nemo 3D SBS [1080p][LATINO AC3 5.1][En-US][Sub][Animación][2012]

Información del Post

  • Puntos Puntos: 0 |
  • Visitas Visitas: 3321 |
  • Autor Publicado por: cadagoto |
  • Categoría: Películas Gratis