Buscando a Nemo [BDRip 1080p][LATINO AC3 5.1]True-HD[En-US][Sub][Animación][2012]


Descargar Buscando a Nemo [BDRip 1080p][LATINO AC3 5.1]True-HD[En-US][Sub][Animación][2012] Película Gratis 1 link por Mega y Mediafire



Argentina Warez » Descargas Gratis » Películas Gratis Buscando a Nemo [BDRip 1080p][LATINO AC3 5.1]True-HD[En-US][Sub][Animación][2012]
30-oct-2012
cadagoto
Premium User
Buscando a Nemo [BDRip 1080p][LATINO AC3 5.1]True-HD[En-US][Sub][Animación][2012]

Buscando a Nemo [BDRip 1080p][LATINO AC3 5.1]True-HD[En-US][Sub][Animación][2012]


Ficha Técnica
Título: Buscando a Nemo 3D
Título original: Finding Nemo
País: USA, Australia
Estreno en USA: 14/09/2012
Estreno en España: 01/02/2013
Productora: Disney•Pixar
Director: Andrew Stanton, Lee Unkrich
Guión: Andrew Stanton, Lee Unkrich
Reparto: (Voces de) Albert Brooks, Ellen DeGeneres, Alexander Gould, Willem Dafoe, Geoffrey Rush
Calificación: Apta para todos los públicos


Sinopsis
En esta impactante aventura submarina, cargada con memorables personajes cómicos y mucha emoción, “Buscando a Nemo” sigue el trascendental viaje de un pez payaso sobreprotector llamado Marlin (con la voz de Albert Brooks) y su joven hijo Nemo (con la voz de Alexander Gould). Cuando ambos se ven separados en la gran barrera de coral, Nemo será llevado lejos de su hogar en el océano y terminará en un acuario en el consultorio de un dentista. Impulsado por la compañía de Dory (con la voz de Ellen DeGeneres), una amigable pero olvidadiza pez cirujano azul, Marlin se embarcará en un peligroso viaje y terminará siendo el improbable héroe de una increíble aventura para rescatar a su hijo; que por su parte también tramará un par de osados planes para regresar a casa.

Datos Técnicos
Código:
::::...CadagotoHD...::::Solo Aportes Exclusivos !
General
Complete name                    : C:\Buscando A Nemo CadagotoHD\Finding.Nemo.2003.1080p.Español Latino AC3 5.1 CadagotoHD..mkv
Format                           : Matroska
Format version                   : Version 2
File size                        : 12.7 GiB
Duration                         : 1h 40mn
Overall bit rate mode            : Variable
Overall bit rate                 : 18.0 Mbps
Movie name                       : :::....CadagotoHD....::: * Aportes Exclusivos*
Encoded date                     : UTC 2012-10-30 02:01:13
Writing application              : mkvmerge v4.4.0 ('Die Wiederkehr') built on Oct 31 2010 21:52:48
Writing library                  : libebml v1.0.0 + libmatroska v1.0.0

Video
ID                               : 1
Format                           : AVC
Format/Info                      : Advanced Video Codec
Format profile                   : High@L4.1
Format settings, CABAC           : Yes
Format settings, ReFrames        : 4 frames
Muxing mode                      : Header stripping
Codec ID                         : V_MPEG4/ISO/AVC
Duration                         : 1h 40mn
Nominal bit rate                 : 10.3 Mbps
Width                            : 1 920 pixels
Height                           : 1 080 pixels
Display aspect ratio             : 16:9
Frame rate                       : 23.976 fps
Color space                      : YUV
Chroma subsampling               : 4:2:0
Bit depth                        : 8 bits
Scan type                        : Progressive
Bits/(Pixel*Frame)               : 0.207
Title                            : :::....CadagotoHD....::: * Aportes Exclusivos *
Writing library                  : x264 core 125 r2200 999b753
Encoding settings                : cabac=1 / ref=4 / deblock=1:-1:-1 / analyse=0x3:0x113 / me=umh / subme=10 / psy=1 / psy_rd=1.00:0.10 / mixed_ref=1 / me_range=32 / chroma_me=1 / trellis=2 / 8x8dct=1 / cqm=0 / deadzone=21,11 / fast_pskip=0 / chroma_qp_offset=-5 / threads=12 / lookahead_threads=2 / sliced_threads=0 / nr=0 / decimate=0 / interlaced=0 / bluray_compat=0 / constrained_intra=0 / bframes=10 / b_pyramid=2 / b_adapt=2 / b_bias=0 / direct=3 / weightb=1 / open_gop=0 / weightp=2 / keyint=250 / keyint_min=23 / scenecut=40 / intra_refresh=0 / rc_lookahead=48 / rc=2pass / mbtree=1 / bitrate=10270 / ratetol=1.0 / qcomp=0.60 / qpmin=0 / qpmax=69 / qpstep=4 / cplxblur=20.0 / qblur=0.5 / ip_ratio=1.40 / aq=1:0.90
Language                         : English
Default                          : Yes
Forced                           : No

Audio #1
ID                               : 2
Format                           : AC-3
Format/Info                      : Audio Coding 3
Mode extension                   : CM (complete main)
Muxing mode                      : Header stripping
Codec ID                         : A_AC3
Duration                         : 1h 40mn
Bit rate mode                    : Constant
Bit rate                         : 640 Kbps
Channel(s)                       : 6 channels
Channel positions                : Front: L C R, Side: L R, LFE
Sampling rate                    : 48.0 KHz
Bit depth                        : 16 bits
Compression mode                 : Lossy
Stream size                      : 462 MiB (4%)
Title                            : :::....CadagotoHD....::: Español Latino 5.1
Language                         : Spanish
Default                          : Yes
Forced                           : Yes

Audio #2
ID                               : 3
Format                           : AC-3
Format/Info                      : Audio Coding 3
Mode extension                   : CM (complete main)
Muxing mode                      : Header stripping
Codec ID                         : A_AC3
Duration                         : 1h 40mn
Bit rate mode                    : Constant
Bit rate                         : 640 Kbps
Channel(s)                       : 6 channels
Channel positions                : Front: L C R, Side: L R, LFE
Sampling rate                    : 48.0 KHz
Bit depth                        : 16 bits
Compression mode                 : Lossy
Stream size                      : 462 MiB (4%)
Title                            : :::....CadagotoHD....::: Ingles AC3 5.1
Language                         : English
Default                          : No
Forced                           : No

Audio #3
ID                               : 4
Format                           : TrueHD
Codec ID                         : A_TRUEHD
Duration                         : 1h 40mn
Bit rate mode                    : Variable
Maximum bit rate                 : 8 757 Kbps
Channel(s)                       : 8 channels
Channel positions                : Front: L C R, Side: L R, Back: L R, LFE
Sampling rate                    : 48.0 KHz
Compression mode                 : Lossless
Title                            : :::....CadagotoHD....:::English True-HD
Language                         : English
Default                          : No
Forced                           : No

Text #1
ID                               : 5
Format                           : UTF-8
Codec ID                         : S_TEXT/UTF8
Codec ID/Info                    : UTF-8 Plain Text
Language                         : French
Default                          : No
Forced                           : No

Text #2
ID                               : 6
Format                           : UTF-8
Codec ID                         : S_TEXT/UTF8
Codec ID/Info                    : UTF-8 Plain Text
Title                            : Sub
Default                          : Yes
Forced                           : Yes
::::...CadagotoHD...::::Aportes únicos En La Web!














Links De 500 Mb!
(Abrir el link en tu Navegador, Eperar 8 Segundos Y Pulsar AQUI)

(Luego tendrás opcion de descargar DLC O Cargar Enlaces con Jdowload Abierto)
¡Descargar AQUI!
Opcion 1
http://46065cc1.tinylinks.co


Opcion2
http://865822df.tinylinks.co




Deseas Peliculas 720p - 1080p - 3D SBS - BluRay BD25 En Español Latino?

¡Solo Tienes Que Seguirme ... CadagotoHD Siempre Lo Mejor en HD De La Web!

Descargar Buscando a Nemo [BDRip 1080p][LATINO AC3 5.1]True-HD[En-US][Sub][Animación][2012] Pelicula Gratis


21-may-2013
walle2022
Platinum User
Re: Buscando a Nemo [BDRip 1080p][LATINO AC3 5.1]True-HD[En-US][Sub][Animación][2012]
muchas gracias pura vida

Necesitás estar Registrado para dejar comentarios en la descarga Buscando a Nemo [BDRip 1080p][LATINO AC3 5.1]True-HD[En-US][Sub][Animación][2012]

Información del Post