Silent House [BDRip 1080p][LATINO AC3 5.1]DTS[En-US][Sub][Terror][2011]


Descargar Silent House [BDRip 1080p][LATINO AC3 5.1]DTS[En-US][Sub][Terror][2011] Película Gratis 1 link por Mega y Mediafire



Argentina Warez » Descargas Gratis » Películas Gratis Silent House [BDRip 1080p][LATINO AC3 5.1]DTS[En-US][Sub][Terror][2011]
01-nov-2012
cadagoto
Premium User
Silent House [BDRip 1080p][LATINO AC3 5.1]DTS[En-US][Sub][Terror][2011]

Silent House [BDRip 1080p][LATINO AC3 5.1]DTS[En-US][Sub][Terror][2011]


Ficha Técnica
TÍTULO ORIGINAL: Silent House
AÑO: 2011
DURACIÓN: 85 min.
PAÍS: USA
DIRECTOR: Chris Kentis, Laura Lau
GUIÓN: Laura Lau (Basado en el guión de: Gustavo Hernández)
REPARTO: Elizabeth Olsen, Adam Trese, Eric Sheffer Stevens, Julia Taylor Ross, Haley Murphy, Adam Barnett
PRODUCTORA: IFC Films
GÉNERO: Terror | Remake

Sinopsis
Siguiendo los pasos de su modelo, 'Silent House' es un cuento de terror que presenta al personaje que interpreta Olsen dentro de una vieja casa de campo, en compañía de su padre y el dueño de la propiedad, donde pasará la noche con el objetivo de a la mañana siguiente empezar con las tareas de restauración, una noche que sobra decir no será precisamente tranquila.

Datos Técnicos
Código:
::::...CadagotoHD...::::Solo Aportes Exclusivos !
General
Complete name                    : CE:\Silent.House.2012\Silent.House.2012.1080p.BDRip Español Latino AC3 5.1 CadagotoHD..mkv
Format                           : Matroska
Format version                   : Version 2
File size                        : 6.80 GiB
Duration                         : 1h 25mn
Overall bit rate                 : 11.3 Mbps
Movie name                       : :::....CadagotoHD....::: * Aportes Exclusivos *
Encoded date                     : UTC 2012-11-01 04:51:42
Writing application              : mkvmerge v4.4.0 ('Die Wiederkehr') built on Oct 31 2010 21:52:48
Writing library                  : libebml v1.0.0 + libmatroska v1.0.0

Video
ID                               : 1
Format                           : AVC
Format/Info                      : Advanced Video Codec
Format profile                   : High@L4.1
Format settings, CABAC           : Yes
Format settings, ReFrames        : 4 frames
Muxing mode                      : Header stripping
Codec ID                         : V_MPEG4/ISO/AVC
Duration                         : 1h 25mn
Bit rate                         : 9 400 Kbps
Width                            : 1 920 pixels
Height                           : 1 040 pixels
Display aspect ratio             : 16:9
Frame rate                       : 23.976 fps
Color space                      : YUV
Chroma subsampling               : 4:2:0
Bit depth                        : 8 bits
Scan type                        : Progressive
Bits/(Pixel*Frame)               : 0.196
Stream size                      : 5.49 GiB (81%)
Title                            : :::....CadagotoHD....::: * Aportes Exclusivos *
Writing library                  : x264 core 120 r2145 748fe16
Encoding settings                : cabac=1 / ref=4 / deblock=1:-3:-3 / analyse=0x3:0x133 / me=umh / subme=6 / psy=1 / psy_rd=1.00:0.10 / mixed_ref=1 / me_range=24 / chroma_me=1 / trellis=2 / 8x8dct=1 / cqm=0 / deadzone=21,11 / fast_pskip=0 / chroma_qp_offset=-3 / threads=6 / sliced_threads=0 / nr=0 / decimate=0 / interlaced=0 / bluray_compat=0 / constrained_intra=0 / bframes=8 / b_pyramid=2 / b_adapt=2 / b_bias=0 / direct=3 / weightb=1 / open_gop=0 / weightp=2 / keyint=360 / keyint_min=2 / scenecut=40 / intra_refresh=0 / rc=2pass / mbtree=0 / bitrate=9400 / ratetol=1.0 / qcomp=0.70 / qpmin=0 / qpmax=69 / qpstep=4 / cplxblur=20.0 / qblur=0.5 / ip_ratio=1.40 / pb_ratio=1.30 / aq=1:1.00
Default                          : No
Forced                           : No

Audio #1
ID                               : 2
Format                           : AC-3
Format/Info                      : Audio Coding 3
Mode extension                   : CM (complete main)
Muxing mode                      : Header stripping
Codec ID                         : A_AC3
Duration                         : 1h 25mn
Bit rate mode                    : Constant
Bit rate                         : 448 Kbps
Channel(s)                       : 6 channels
Channel positions                : Front: L C R, Side: L R, LFE
Sampling rate                    : 48.0 KHz
Bit depth                        : 16 bits
Compression mode                 : Lossy
Delay relative to video          : 29s 800ms
Stream size                      : 275 MiB (4%)
Title                            : :::....CadagotoHD....:::Español  Latino AC3 5.1
Language                         : Spanish
Default                          : Yes
Forced                           : Yes

Audio #2
ID                               : 3
Format                           : DTS
Format/Info                      : Digital Theater Systems
Muxing mode                      : Header stripping
Codec ID                         : A_DTS
Duration                         : 1h 25mn
Bit rate mode                    : Constant
Bit rate                         : 1 510 Kbps
Channel(s)                       : 6 channels
Channel positions                : Front: L C R, Side: L R, LFE
Sampling rate                    : 48.0 KHz
Bit depth                        : 24 bits
Compression mode                 : Lossy
Stream size                      : 927 MiB (13%)
Title                            : :::....CadagotoHD....::: Ingles DTS
Language                         : English
Default                          : No
Forced                           : No

Text #1
ID                               : 4
Format                           : VobSub
Muxing mode                      : zlib
Codec ID                         : S_VOBSUB
Codec ID/Info                    : The same subtitle format used on DVDs
Title                            : Ingles
Language                         : English
Default                          : No
Forced                           : No

Text #2
ID                               : 5
Format                           : UTF-8
Codec ID                         : S_TEXT/UTF8
Codec ID/Info                    : UTF-8 Plain Text
Title                            : Español
Default                          : No
Forced                           : No

Text #3
ID                               : 6
Format                           : UTF-8
Codec ID                         : S_TEXT/UTF8
Codec ID/Info                    : UTF-8 Plain Text
Title                            : Forzados
Default                          : Yes
Forced                           : Yes
::::...CadagotoHD...::::Aportes únicos En La Web!












Links De 500 Mb!
(Abrir el link en tu Navegador, Eperar 8 Segundos Y Pulsar AQUI)

(Luego tendrás opcion de descargar DLC O Cargar Enlaces con Jdowload Abierto)
¡Descargar AQUI!
Opcion 1
http://b5020794.tinylinks.co


Opcion2
http://fa7f2961.miniurls.co


Deseas Peliculas 720p - 1080p - 3D SBS - BluRay BD25 En Español Latino?

¡Solo Tienes Que Seguirme ... CadagotoHD Siempre Lo Mejor en HD De La Web!

Descargar Silent House [BDRip 1080p][LATINO AC3 5.1]DTS[En-US][Sub][Terror][2011] Pelicula Gratis



Necesitás estar Registrado para dejar comentarios en Silent House [BDRip 1080p][LATINO AC3 5.1]DTS[En-US][Sub][Terror][2011]

Información del Post