Argentina Warez » Descargas Gratis » Películas Gratis Salvajes(Savages)Unrated[BDRip 1080p][LATINO AC3 5.1]DTS[En-US][Sub][Crimen][2012]
07-nov-2012
cadagoto
Premium User
Salvajes(Savages)Unrated[BDRip 1080p][LATINO AC3 5.1]DTS[En-US][Sub][Crimen][2012]

Salvajes(Savages)Unrated[BDRip 1080p][LATINO AC3 5.1]DTS[En-US][Sub][Crimen][2012]


Ficha Técnica
TÍTULO: Savages
AÑO: 2012
PAÍS: Estados Unidos
DIRECTOR: Oliver Stone
GUIÓN: Shane Salerno, Don Winslow, Oliver Stone (Novela: Don Winslow)
MÚSICA: Adam Peters
FOTOGRAFÍA: Daniel Mindel
GÉNERO: Thriller. Drama | Crimen
PRODUCTORA: Ixtlan / Onda Entertainment / Relativity Media
REPARTO: Taylor Kitsch, Blake Lively, John Travolta, Salma Hayek, Aaron Johnson, Emile Hirsch, Benicio Del Toro, Joel David Moore, Trevor Donovan, Mía Maestro, Demián Bichir, Diego Cataño, Gonzalo Menéndez, Alexander Wraith, Jonathan Patrick Moore, Antonio Jaramillo, Aaron Kunitz, Jake McLaughlin, Matt Riedy, Joaquín Cosío, Sandra Echeverría


Sinopsis
Adaptación de una novela de Don Winslow. Dos amigos de Laguna Beach, que comparten novia, se dedican al tráfico de drogas. Un cartel mexicano secuestra a la chica y les exige como rescate todo el dinero que han ganado durante los últimos cinco años. Aunque los jóvenes se muestran dispuestos a pagar, al mismo tiempo, idean un plan para rescatar a la chica y vengarse de sus secuestradores.

Datos Técnicos
Código:
::::...CadagotoHD...::::Solo Aportes Exclusivos !
General
Complete name                    : C:\Salvajes 2012 BDRip CadagotoHD\Savages.2012.Unrated.1080p.Español Latino AC3 5.1 CadagotoHD.mkv
Format                           : Matroska
Format version                   : Version 2
File size                        : 10.2 GiB
Duration                         : 2h 21mn
Overall bit rate                 : 10.3 Mbps
Movie name                       : :::....CadagotoHD....::: * Aportes Exclusivos *
Encoded date                     : UTC 2012-11-04 06:13:36
Writing application              : mkvmerge v4.4.0 ('Die Wiederkehr') built on Oct 31 2010 21:52:48
Writing library                  : libebml v1.0.0 + libmatroska v1.0.0

Video
ID                               : 1
Format                           : AVC
Format/Info                      : Advanced Video Codec
Format profile                   : High@L4.0
Format settings, CABAC           : Yes
Format settings, ReFrames        : 5 frames
Muxing mode                      : Header stripping
Codec ID                         : V_MPEG4/ISO/AVC
Duration                         : 2h 21mn
Bit rate                         : 8 463 Kbps
Width                            : 1 920 pixels
Height                           : 800 pixels
Display aspect ratio             : 2.40:1
Frame rate                       : 23.976 fps
Color space                      : YUV
Chroma subsampling               : 4:2:0
Bit depth                        : 8 bits
Scan type                        : Progressive
Bits/(Pixel*Frame)               : 0.230
Stream size                      : 8.14 GiB (80%)
Title                            : :::....CadagotoHD....::: * Aportes Exclusivos *
Writing library                  : x264 core 128 r2216 198a7ea
Encoding settings                : cabac=1 / ref=5 / deblock=1:0:0 / analyse=0x3:0x133 / me=umh / subme=7 / psy=1 / psy_rd=1.00:0.00 / mixed_ref=1 / me_range=16 / chroma_me=1 / trellis=1 / 8x8dct=1 / cqm=0 / deadzone=21,11 / fast_pskip=0 / chroma_qp_offset=-2 / threads=12 / lookahead_threads=2 / sliced_threads=0 / nr=0 / decimate=1 / interlaced=0 / bluray_compat=0 / constrained_intra=0 / bframes=3 / b_pyramid=2 / b_adapt=2 / b_bias=0 / direct=3 / weightb=1 / open_gop=0 / weightp=2 / keyint=250 / keyint_min=23 / scenecut=40 / intra_refresh=0 / rc_lookahead=50 / rc=2pass / mbtree=1 / bitrate=8463 / ratetol=1.0 / qcomp=0.60 / qpmin=0 / qpmax=69 / qpstep=4 / cplxblur=20.0 / qblur=0.5 / ip_ratio=1.40 / aq=1:1.00
Language                         : English
Default                          : Yes
Forced                           : No

Audio #1
ID                               : 2
Format                           : AC-3
Format/Info                      : Audio Coding 3
Mode extension                   : CM (complete main)
Muxing mode                      : Header stripping
Codec ID                         : A_AC3
Duration                         : 2h 21mn
Bit rate mode                    : Constant
Bit rate                         : 384 Kbps
Channel(s)                       : 6 channels
Channel positions                : Front: L C R, Side: L R, LFE
Sampling rate                    : 48.0 KHz
Bit depth                        : 16 bits
Compression mode                 : Lossy
Stream size                      : 388 MiB (4%)
Title                            : :::....CadagotoHD....::: Español Latino AC3 5.1
Default                          : Yes
Forced                           : Yes

Audio #2
ID                               : 3
Format                           : DTS
Format/Info                      : Digital Theater Systems
Muxing mode                      : Header stripping
Codec ID                         : A_DTS
Duration                         : 2h 21mn
Bit rate mode                    : Constant
Bit rate                         : 1 510 Kbps
Channel(s)                       : 6 channels
Channel positions                : Front: L C R, Side: L R, LFE
Sampling rate                    : 48.0 KHz
Bit depth                        : 24 bits
Compression mode                 : Lossy
Delay relative to video          : 11ms
Stream size                      : 1.49 GiB (15%)
Title                            : :::....CadagotoHD....::: Ingles DTS
Language                         : English
Default                          : No
Forced                           : No

Text #1
ID                               : 4
Format                           : UTF-8
Codec ID                         : S_TEXT/UTF8
Codec ID/Info                    : UTF-8 Plain Text
Title                            : Sub Español
Default                          : No
Forced                           : No

Text #2
ID                               : 5
Format                           : UTF-8
Codec ID                         : S_TEXT/UTF8
Codec ID/Info                    : UTF-8 Plain Text
Title                            : Sub Ingles
Language                         : English
Default                          : No
Forced                           : No

Text #3
ID                               : 6
Format                           : UTF-8
Codec ID                         : S_TEXT/UTF8
Codec ID/Info                    : UTF-8 Plain Text
Title                            : Forzados
Default                          : Yes
Forced                           : Yes

Menu
00:00:00.000                     : en:00:00:00.000
00:06:42.152                     : en:00:06:42.152
00:13:40.737                     : en:00:13:40.737
00:20:58.215                     : en:00:20:58.215
00:24:36.934                     : en:00:24:36.934
00:31:40.899                     : en:00:31:40.899
00:41:50.258                     : en:00:41:50.258
00:48:33.869                     : en:00:48:33.869
00:57:19.519                     : en:00:57:19.519
01:02:04.554                     : en:01:02:04.554
01:11:21.819                     : en:01:11:21.819
01:19:53.747                     : en:01:19:53.747
01:28:03.236                     : en:01:28:03.236
01:36:29.867                     : en:01:36:29.867
01:43:49.849                     : en:01:43:49.849
01:48:41.348                     : en:01:48:41.348
01:56:37.032                     : en:01:56:37.032
02:02:58.496                     : en:02:02:58.496
02:11:47.024                     : en:02:11:47.024
02:16:49.910                     : en:02:16:49.910
::::...CadagotoHD...::::Aportes únicos En La Web!

















Deseas Bajar A Maxima Velocidad?,Cliquea El Link Y Adquiere Tu Premiun y Me Ayudas A Seguir Subiendo!

http://uploaded.net/file/jahu1bo6/SV...oHD.part01.rev

Links De 500 Mb!
¡Descargar Los Enlaces AQUI!
http://s2l.biz/2wsy4dm31z7e











Deseas Peliculas 720p - 1080p - 3D SBS - BluRay BD25 En Español Latino?

¡Solo Tienes Que Seguirme ... CadagotoHD Siempre Lo Mejor en HD De La Web!

Descargar Salvajes(Savages)Unrated[BDRip 1080p][LATINO AC3 5.1]DTS[En-US][Sub][Crimen][2012] Pelicula Gratis



Necesitás estar Registrado para dejar comentarios en Salvajes(Savages)Unrated[BDRip 1080p][LATINO AC3 5.1]DTS[En-US][Sub][Crimen][2012]

Información del Post