Charada [1963][BDRIP 1080p][Cast/Ing Subs][mkv][Intriga][DDL]


Descargar Charada [1963][BDRIP 1080p][Cast/Ing Subs][mkv][Intriga][DDL] Película Gratis 1 link por Mega y Mediafire



Argentina Warez » Descargas Gratis » Películas Gratis Charada [1963][BDRIP 1080p][Cast/Ing Subs][mkv][Intriga][DDL]
21-nov-2012
cineclasico
Silver User
Charada [1963][BDRIP 1080p][Cast/Ing Subs][mkv][Intriga][DDL]

TÍTULO ORIGINAL Charade
AÑO 1963
DURACIÓN 113 min.
PAÍS [Estados Unidos]
DIRECTOR Stanley Donen
GUIÓN Peter Stone
MÚSICA Henry Mancini
FOTOGRAFÍA Charles Lang Jr.
REPARTO Cary Grant, Audrey Hepburn, Walter Matthau, James Coburn, George Kennedy, Ned Glass, Jacques Marin, Paul Bonifas, Thomas Chelimsky
PRODUCTORA Universal Pictures
PREMIOS 1963: Nominada al Oscar: Mejor canción
1963: Premios David di Donatello: Plato dorado (Universal Pictures)
GÉNERO Intriga. Comedia. Romance. Thriller


SINOPSIS

Regina es una mujer que vuelve de unas vacaciones en una estación de esquí con la intención de pedirle el divorcio a su marido, pero cuando llega a París resulta que éste ha sido asesinado. Las sospechas recaen en tres hombres que están dispuestos a todo con tal de conseguir una enorme fortuna que debería estar en poder de su marido, pero que en realidad pertenece al gobierno de los Estados Unidos.

Formato mkv
Códecs: Video h264
Audio Inglés Ac3 2.0, Español AC3 1.0
Subtítulos: Español,Inglés
Resolución 1920x1040

Código:
Format                                   : Matroska
Format version                           : Version 2
File size                                : 3.91 GiB
Duration                                 : 1h 53mn
Overall bit rate                         : 4 933 Kbps
Encoded date                             : UTC 2012-11-20 18:58:41
Writing application                      : mkvmerge v5.1.0 ('And so it goes') built on Feb  1 2012 11:32:58
Writing library                          : libebml v1.2.2 + libmatroska v1.3.0

Video
ID                                       : 1
Format                                   : AVC
Format/Info                              : Advanced Video Codec
Format profile                           : High@L4.0
Format settings, CABAC                   : Yes
Format settings, ReFrames                : 4 frames
Muxing mode                              : Header stripping
Codec ID                                 : V_MPEG4/ISO/AVC
Duration                                 : 1h 53mn
Bit rate                                 : 4 500 Kbps
Width                                    : 1 920 pixels
Height                                   : 1 040 pixels
Display aspect ratio                     : 16:9
Frame rate mode                          : Variable
Frame rate                               : 23.976 fps
Color space                              : YUV
Chroma subsampling                       : 4:2:0
Bit depth                                : 8 bits
Scan type                                : Progressive
Bits/(Pixel*Frame)                       : 0.094
Stream size                              : 3.48 GiB (89%)
Writing library                          : x264 core 88
Encoding settings                        : cabac=1 / ref=4 / deblock=1:-1:0 / analyse=0x3:0x133 / me=umh / subme=9 / psy=1 / psy_rd=1.00:0.00 / mixed_ref=1 / me_range=32 / chroma_me=1 / trellis=2 / 8x8dct=1 / cqm=0 / deadzone=21,11 / fast_pskip=1 / chroma_qp_offset=-2 / threads=12 / sliced_threads=0 / nr=0 / decimate=1 / mbaff=0 / constrained_intra=0 / bframes=5 / b_pyramid=2 / b_adapt=2 / b_bias=0 / direct=3 / wpredb=1 / wpredp=2 / keyint=240 / keyint_min=24 / scenecut=40 / intra_refresh=0 / rc_lookahead=50 / rc=2pass / mbtree=1 / bitrate=4500 / ratetol=1.0 / qcomp=0.60 / qpmin=10 / qpmax=51 / qpstep=4 / cplxblur=20.0 / qblur=0.5 / ip_ratio=1.40 / aq=1:1.00
Language                                 : English
Default                                  : Yes
Forced                                   : No
Color primaries                          : BT.709-5, BT.1361, IEC 61966-2-4, SMPTE RP177
Transfer characteristics                 : BT.709-5, BT.1361
Matrix coefficients                      : BT.709-5, BT.1361, IEC 61966-2-4 709, SMPTE RP177

Audio #1
ID                                       : 2
Format                                   : AC-3
Format/Info                              : Audio Coding 3
Mode extension                           : CM (complete main)
Muxing mode                              : Header stripping
Codec ID                                 : A_AC3
Duration                                 : 1h 53mn
Bit rate mode                            : Constant
Bit rate                                 : 192 Kbps
Channel(s)                               : 2 channels
Channel positions                        : Front: L R
Sampling rate                            : 48.0 KHz
Bit depth                                : 16 bits
Compression mode                         : Lossy
Stream size                              : 156 MiB (4%)
Default                                  : Yes
Forced                                   : No

Audio #2
ID                                       : 3
Format                                   : AC-3
Format/Info                              : Audio Coding 3
Mode extension                           : CM (complete main)
Muxing mode                              : Header stripping
Codec ID                                 : A_AC3
Duration                                 : 1h 53mn
Bit rate mode                            : Constant
Bit rate                                 : 256 Kbps
Channel(s)                               : 1 channel
Channel positions                        : Front: C
Sampling rate                            : 48.0 KHz
Bit depth                                : 16 bits
Compression mode                         : Lossy
Stream size                              : 208 MiB (5%)
Default                                  : No
Forced                                   : No

Text #1
ID                                       : 4
Format                                   : UTF-8
Codec ID                                 : S_TEXT/UTF8
Codec ID/Info                            : UTF-8 Plain Text
Language                                 : English
Default                                  : Yes
Forced                                   : No

Text #2
ID                                       : 5
Format                                   : UTF-8
Codec ID                                 : S_TEXT/UTF8
Codec ID/Info                            : UTF-8 Plain Text
Language                                 : Spanish
Default                                  : No
Forced                                   : No
Código:
http://www.ddlstorage.com/z5wuj0uhztvw/Charada_1963_1080p_cineclasico.part01.rar.htm
http://www.ddlstorage.com/0yff78vckdco/Charada_1963_1080p_cineclasico.part01.rev.htm
http://www.ddlstorage.com/w997mw82dsp1/Charada_1963_1080p_cineclasico.part02.rar.htm
http://www.ddlstorage.com/3h2q9y5exsz6/Charada_1963_1080p_cineclasico.part02.rev.htm
http://www.ddlstorage.com/fne7voikkhn7/Charada_1963_1080p_cineclasico.part03.rar.htm
http://www.ddlstorage.com/uk4c4arxva8z/Charada_1963_1080p_cineclasico.part03.rev.htm
http://www.ddlstorage.com/bf6akol0ri5t/Charada_1963_1080p_cineclasico.part04.rar.htm
http://www.ddlstorage.com/ssxx3gbl197l/Charada_1963_1080p_cineclasico.part04.rev.htm
http://www.ddlstorage.com/z90t1lmlpqlt/Charada_1963_1080p_cineclasico.part05.rar.htm
http://www.ddlstorage.com/qeippeowg18f/Charada_1963_1080p_cineclasico.part05.rev.htm
http://www.ddlstorage.com/wyb5oaahpivo/Charada_1963_1080p_cineclasico.part06.rar.htm
http://www.ddlstorage.com/9lfrgy6w1kdu/Charada_1963_1080p_cineclasico.part07.rar.htm
http://www.ddlstorage.com/72hz0f1imrm9/Charada_1963_1080p_cineclasico.part08.rar.htm
http://www.ddlstorage.com/11v1fvlin5ny/Charada_1963_1080p_cineclasico.part09.rar.htm
http://www.ddlstorage.com/2do4gzo5h1n7/Charada_1963_1080p_cineclasico.part10.rar.htm
http://www.ddlstorage.com/kkssrr5916ko/Charada_1963_1080p_cineclasico.part11.rar.htm
http://www.ddlstorage.com/trvqngv24783/Charada_1963_1080p_cineclasico.part12.rar.htm
http://www.ddlstorage.com/ek0jkqewc0cd/Charada_1963_1080p_cineclasico.part13.rar.htm
http://www.ddlstorage.com/e593vggqpiq1/Charada_1963_1080p_cineclasico.part14.rar.htm
http://www.ddlstorage.com/j08zgiikkp0y/Charada_1963_1080p_cineclasico.part15.rar.htm
http://www.ddlstorage.com/tjkxnhh46and/Charada_1963_1080p_cineclasico.part16.rar.htm
http://www.ddlstorage.com/qrhz894sv5ps/Charada_1963_1080p_cineclasico.part17.rar.htm
http://www.ddlstorage.com/b42hpyg3pi4q/Charada_1963_1080p_cineclasico.part18.rar.htm
http://www.ddlstorage.com/4g2stnaen9xl/Charada_1963_1080p_cineclasico.part19.rar.htm
http://www.ddlstorage.com/84t246kmmmy3/Charada_1963_1080p_cineclasico.part20.rar.htm
http://www.ddlstorage.com/2zms6ckhjh8h/Charada_1963_1080p_cineclasico.part21.rar.htm
http://www.ddlstorage.com/mftlsudviukn/Charada_1963_1080p_cineclasico.part22.rar.htm
http://www.ddlstorage.com/zc8q40owdw8s/Charada_1963_1080p_cineclasico.part23.rar.htm
http://www.ddlstorage.com/jsngicpt03cn/Charada_1963_1080p_cineclasico.part24.rar.htm
http://www.ddlstorage.com/0e2ya4jo25td/Charada_1963_1080p_cineclasico.part25.rar.htm
http://www.ddlstorage.com/3zbavb7cl48u/Charada_1963_1080p_cineclasico.part26.rar.htm
http://www.ddlstorage.com/4tpjzykuqhv0/Charada_1963_1080p_cineclasico.part27.rar.htm
http://www.ddlstorage.com/smtcvnmlopm9/Charada_1963_1080p_cineclasico.part28.rar.htm
http://www.ddlstorage.com/40rqlh1ud4zj/Charada_1963_1080p_cineclasico.part29.rar.htm
http://www.ddlstorage.com/4fb1qmptgfbv/Charada_1963_1080p_cineclasico.part30.rar.htm
http://www.ddlstorage.com/15pta8scdmd6/Charada_1963_1080p_cineclasico.part31.rar.htm
http://www.ddlstorage.com/8vlp1tacvz0r/Charada_1963_1080p_cineclasico.part32.rar.htm
http://www.ddlstorage.com/ysyuv1xx4ufv/Charada_1963_1080p_cineclasico.part33.rar.htm
http://www.ddlstorage.com/micbbyeg8z72/Charada_1963_1080p_cineclasico.part34.rar.htm
http://www.ddlstorage.com/dke6y0mqxklm/Charada_1963_1080p_cineclasico.part35.rar.htm
http://www.ddlstorage.com/4h1ucu0j5ph6/Charada_1963_1080p_cineclasico.part36.rar.htm
http://www.ddlstorage.com/f14dq5irx02l/Charada_1963_1080p_cineclasico.part37.rar.htm
http://www.ddlstorage.com/m74fx6j9hdcy/Charada_1963_1080p_cineclasico.part38.rar.htm
http://www.ddlstorage.com/41fuobcsftkm/Charada_1963_1080p_cineclasico.part39.rar.htm
Partido con winrar
Contraseña: cineclasico

Puedes copiar este post donde quieras.

Descargar Charada [1963][BDRIP 1080p][Cast/Ing Subs][mkv][Intriga][DDL] Pelicula Gratis



Necesitás estar Registrado para dejar comentarios en la descarga Charada [1963][BDRIP 1080p][Cast/Ing Subs][mkv][Intriga][DDL]

Información del Post

  • Puntos Puntos: 0 |
  • Visitas Visitas: 164 |
  • Autor Publicado por: cineclasico |
  • Categoría: Películas Gratis