Batman: The Dark Knight Returns, Part 2 (2013) [BdRip 720p] [Aud: Castellano - Latino] [PL+VS]


Descargar Batman: The Dark Knight Returns, Part 2 (2013) [BdRip 720p] [Aud: Castellano - Latino] [PL+VS] Película Gratis 1 link por Mega y Mediafire



Argentina Warez » Descargas Gratis » Películas Gratis Batman: The Dark Knight Returns, Part 2 (2013) [BdRip 720p] [Aud: Castellano - Latino] [PL+VS]
15-ene-2013
seelej
Platinum User
Batman: The Dark Knight Returns, Part 2 (2013) [BdRip 720p] [Aud: Castellano - Latino] [PL+VS]


Batman: The Dark Knight Returns, Part 2 (2012)
BDRip 720p | XviD | AC3 | 3.2 GB | Audios: Español Latino, Español España, Inglés | Subtítulos: Español | Animación | 2013




TÍTULO ORIGINAL: Batman: The Dark Knight Returns, Part 2
OTROS TÍTULOS: Batman: El Regreso del Caballero Oscuro, Parte 2
AÑO: 2013
DURACIÓN: 74 min.
PAÍS: USA
DIRECTOR: Jay Oliva
GUIÓN: Bob Goodman (Cómic: Frank Miller. Personajes: Bob Kane)
FOTOGRAFÍA: Animation
REPARTO: Animation
PRODUCTORA: Warner Bros. Animation / Warner Premiere / DC Comics
GÉNERO: Animación. Thriller. Acción | Superhéroes. Cómic. DC Comics. Secuela

NFO:
Código:
General
Complete name                    : Batman.The.Dark.Knight.Returns.Part.2.2013.BDRip.LATiNO.SPA.ENG.XviD.AC3.avi
Format                           : AVI
Format/Info                      : Audio Video Interleave
Format profile                   : OpenDML
File size                        : 3.23 GiB
Duration                         : 1h 15mn
Overall bit rate                 : 6 093 Kbps

Video
ID                               : 0
Format                           : MPEG-4 Visual
Format profile                   : Advanced Simple@L5
Format settings, BVOP            : 2
Format settings, QPel            : No
Format settings, GMC             : No warppoints
Format settings, Matrix          : Default (MPEG)
Codec ID                         : XVID
Codec ID/Hint                    : XviD
Duration                         : 1h 15mn
Bit rate                         : 4 600 Kbps
Width                            : 1 280 pixels
Height                           : 720 pixels
Display aspect ratio             : 16:9
Frame rate                       : 23.976 fps
Color space                      : YUV
Chroma subsampling               : 4:2:0
Bit depth                        : 8 bits
Scan type                        : Progressive
Compression mode                 : Lossy
Bits/(Pixel*Frame)               : 0.208
Stream size                      : 2.44 GiB (75%)
Writing library                  : XviD 1.2.1 (UTC 2008-12-04)

Audio #1
ID                               : 1
Format                           : AC-3
Format/Info                      : Audio Coding 3
Mode extension                   : CM (complete main)
Codec ID                         : 2000
Duration                         : 1h 15mn
Bit rate mode                    : Constant
Bit rate                         : 640 Kbps
Channel(s)                       : 6 channels
Channel positions                : Front: L C R, Side: L R, LFE
Sampling rate                    : 48.0 KHz
Bit depth                        : 16 bits
Compression mode                 : Lossy
Stream size                      : 347 MiB (11%)
Alignment                        : Split accross interleaves
Interleave, duration             : 42 ms (1.00 video frame)
Interleave, preload duration     : 500 ms

Audio #2
ID                               : 2
Format                           : AC-3
Format/Info                      : Audio Coding 3
Format profile                   : Dolby Digital
Mode extension                   : CM (complete main)
Codec ID                         : 2000
Duration                         : 1h 15mn
Bit rate mode                    : Constant
Bit rate                         : 192 Kbps
Channel(s)                       : 2 channels
Channel positions                : Front: L R
Sampling rate                    : 48.0 KHz
Bit depth                        : 16 bits
Compression mode                 : Lossy
Stream size                      : 104 MiB (3%)
Alignment                        : Split accross interleaves
Interleave, duration             : 42 ms (1.00 video frame)
Interleave, preload duration     : 500 ms

Audio #3
ID                               : 3
Format                           : AC-3
Format/Info                      : Audio Coding 3
Mode extension                   : CM (complete main)
Codec ID                         : 2000
Duration                         : 1h 15mn
Bit rate mode                    : Constant
Bit rate                         : 640 Kbps
Channel(s)                       : 6 channels
Channel positions                : Front: L C R, Side: L R, LFE
Sampling rate                    : 48.0 KHz
Bit depth                        : 16 bits
Compression mode                 : Lossy
Stream size                      : 347 MiB (11%)
Alignment                        : Split accross interleaves
Interleave, duration             : 42 ms (1.00 video frame)
Interleave, preload duration     : 500 ms



Siguiendo con los sucesos que nos hicieron vibrar en El Regreso del Caballero Oscuro: Primera Parte, un Batman odiado y querido a partes iguales por los ciudadanos de Ciudad Gotham será llevado hasta sus límites. Teniendo que enfrentarse de nuevo a un Joker más loco que nunca, se encontrará inesperadamente luchando a muerte con su antiguo aliado, Superman. Solo uno de los dos podrá sobrevivir al combate definitivo. Segunda parte de la adaptación del aclamado cómic de Frank Miller “El retorno del señor de la noche”..




Código:
http://www.listalinks.com/?L=1df21edc












Descargar Batman: The Dark Knight Returns, Part 2 (2013) [BdRip 720p] [Aud: Castellano - Latino] [PL+VS] Pelicula Gratis



Necesitás estar Registrado para dejar comentarios en Batman: The Dark Knight Returns, Part 2 (2013) [BdRip 720p] [Aud: Castellano - Latino] [PL+VS]

Información del Post