Batman: El Misterio de Capucha Roja [BDRip 720p][LATiNO/Cast/Ingles[Sub][2010]


Descargar Batman: El Misterio de Capucha Roja [BDRip 720p][LATiNO/Cast/Ingles[Sub][2010] Película Gratis 1 link por Mega y Mediafire



Argentina Warez » Descargas Gratis » Películas Gratis Batman: El Misterio de Capucha Roja [BDRip 720p][LATiNO/Cast/Ingles[Sub][2010]
24-mar-2013
cadagoto
Premium User
Batman: El Misterio de Capucha Roja [BDRip 720p][LATiNO/Cast/Ingles[Sub][2010]

Batman: El Misterio de Capucha Roja [BDRip 720p][Español LATiNO/Castellano/Ingles DTS][Sub][2010][Animación]



Ficha Técnica
TÍTULO ORIGINAL: Batman: Under the Red Hood
TÍTULO: Batman: Capucha Roja / Batman: El Misterio de Capucha Roja
AÑO: 2010
DURACIÓN: 75 min.
PAÍS: USA
DIRECTOR: Brandon Vietti
GUIÓN: Judd Winick
MÚSICA: Christopher Drake
FOTOGRAFÍA: Animation
REPARTO: Animation
PRODUCTORA: DC Entertainment / Warner Bros. Animation
GÉNERO: Animación. Acción. Fantástico | Superhéroes. Cómic

Sinopsis
Cuando aparece en Gotham City un hombre conocido como Red Hood, Batman se verá forzado a frenarle los pies. Red Hood, mitad vigilante mitad criminal, comenzará a hacer el mismo trabajo que Batman, aunque bajo otro código moral: matar es una opción.

Datos Técnicos
Código:
General
Format                                   : Matroska
Format version                           : Version 2
File size                                : 2.73 GiB
Duration                                 : 1h 15mn
Overall bit rate mode                    : Variable
Overall bit rate                         : 5 152 Kbps
Movie name                               : CadagotoHD.Com  ¡Visítanos!
Encoded date                             : UTC 2013-03-24 22:27:26
Writing application                      : mkvmerge v3.4.0 ('Rapunzel') built on May 15 2010 09:38:20
Writing library                          : libebml v0.8.0 + libmatroska v0.9.0

Video
ID                                       : 1
Format                                   : AVC
Format/Info                              : Advanced Video Codec
Format profile                           : High 10@L4.1
Format settings, CABAC                   : Yes
Format settings, ReFrames                : 3 frames
Format settings, GOP                     : M=4, N=23
Codec ID                                 : V_MPEG4/ISO/AVC
Duration                                 : 1h 15mn
Bit rate mode                            : Variable
Bit rate                                 : 2 036 Kbps
Maximum bit rate                         : 14.0 Mbps
Width                                    : 1 280 pixels
Height                                   : 720 pixels
Display aspect ratio                     : 16:9
Frame rate mode                          : Constant
Frame rate                               : 23.976 fps
Color space                              : YUV
Chroma subsampling                       : 4:2:0
Bit depth                                : 10 bits
Scan type                                : Progressive
Bits/(Pixel*Frame)                       : 0.092
Stream size                              : 1.08 GiB (40%)
Title                                    : CadagotoHD.Com  ¡Visítanos!
Writing library                          : x264 core 129 r2245 bc13772
Encoding settings                        : cabac=1 / ref=4 / deblock=1:1:1 / analyse=0x3:0x133 / me=umh / subme=9 / psy=1 / psy_rd=0.40:0.00 / mixed_ref=1 / me_range=16 / chroma_me=1 / trellis=2 / 8x8dct=1 / cqm=0 / deadzone=21,11 / fast_pskip=1 / chroma_qp_offset=-2 / threads=24 / lookahead_threads=4 / sliced_threads=0 / slices=4 / nr=0 / decimate=1 / interlaced=0 / bluray_compat=0 / constrained_intra=0 / bframes=3 / b_pyramid=1 / b_adapt=2 / b_bias=0 / direct=3 / weightb=1 / open_gop=0 / weightp=0 / keyint=23 / keyint_min=1 / scenecut=40 / intra_refresh=0 / rc_lookahead=24 / rc=crf / mbtree=1 / crf=17.0 / qcomp=0.60 / qpmin=10 / qpmax=51 / qpstep=4 / vbv_maxrate=14000 / vbv_bufsize=14500 / crf_max=0.0 / nal_hrd=vbr / ip_ratio=1.40 / aq=1:0.60
Language                                 : English
Default                                  : No
Forced                                   : Yes

Audio #1
ID                                       : 2
Format                                   : AC-3
Format/Info                              : Audio Coding 3
Mode extension                           : CM (complete main)
Format settings, Endianness              : Big
Codec ID                                 : A_AC3
Duration                                 : 1h 15mn
Bit rate mode                            : Constant
Bit rate                                 : 224 Kbps
Channel(s)                               : 2 channels
Channel positions                        : Front: L R
Sampling rate                            : 48.0 KHz
Bit depth                                : 16 bits
Compression mode                         : Lossy
Delay relative to video                  : 100ms
Stream size                              : 122 MiB (4%)
Title                                    : CadagotoHD.Com - Audio Español LATiNO
Language                                 : Spanish
Default                                  : No
Forced                                   : Yes

Audio #2
ID                                       : 3
Format                                   : AC-3
Format/Info                              : Audio Coding 3
Mode extension                           : CM (complete main)
Format settings, Endianness              : Big
Codec ID                                 : A_AC3
Duration                                 : 1h 15mn
Bit rate mode                            : Constant
Bit rate                                 : 640 Kbps
Channel(s)                               : 6 channels
Channel positions                        : Front: L C R, Side: L R, LFE
Sampling rate                            : 48.0 KHz
Bit depth                                : 16 bits
Compression mode                         : Lossy
Stream size                              : 347 MiB (12%)
Title                                    : CadagotoHD.Com - Audio Castellano AC3 5.1
Language                                 : Spanish
Default                                  : No
Forced                                   : No

Audio #3
ID                                       : 4
Format                                   : AC-3
Format/Info                              : Audio Coding 3
Mode extension                           : CM (complete main)
Format settings, Endianness              : Big
Codec ID                                 : A_AC3
Duration                                 : 1h 15mn
Bit rate mode                            : Constant
Bit rate                                 : 640 Kbps
Channel(s)                               : 6 channels
Channel positions                        : Front: L C R, Side: L R, LFE
Sampling rate                            : 48.0 KHz
Bit depth                                : 16 bits
Compression mode                         : Lossy
Stream size                              : 347 MiB (12%)
Title                                    : CadagotoHD.Com - Audio Ingles AC3 5.1
Language                                 : English
Default                                  : No
Forced                                   : No

Audio #4
ID                                       : 5
Format                                   : DTS
Format/Info                              : Digital Theater Systems
Mode                                     : 16
Format settings, Endianness              : Big
Codec ID                                 : A_DTS
Duration                                 : 1h 15mn
Bit rate mode                            : Constant
Bit rate                                 : 1 509 Kbps
Channel(s)                               : 6 channels
Channel positions                        : Front: L C R, Side: L R, LFE
Sampling rate                            : 48.0 KHz
Bit depth                                : 24 bits
Compression mode                         : Lossy
Delay relative to video                  : 11ms
Stream size                              : 819 MiB (29%)
Title                                    : CadagotoHD.Com - Audio Ingles DTS
Language                                 : English
Default                                  : No
Forced                                   : No

Text
ID                                       : 6
Format                                   : UTF-8
Codec ID                                 : S_TEXT/UTF8
Codec ID/Info                            : UTF-8 Plain Text
Title                                    : Sub Español
Language                                 : Spanish
Default                                  : No
Forced                                   : No

Menu
00:00:00.000                             : es:Capítulo 01
00:09:57.596                             : es:Capítulo 02
00:20:08.373                             : es:Capítulo 03
00:32:59.477                             : es:Capítulo 04
00:41:12.011                             : es:Capítulo 05
00:49:04.399                             : es:Capítulo 06
01:00:22.243                             : es:Capítulo 07
01:10:28.224                             : es:Capítulo 08


















Links De 500 Mb!
¡Descargar Los Enlaces AQUI!
http://s2l.biz/64ht6km6xi53




Utiliza los Archivos .REV si tienes problema con 1,2,3 archivos en su descarga , Esté off o corruptos

Si necesitas 2 archivos , Bajas 2 REV y los reconstruirán Cualquiera que fuesen los que te falten !

Descargar Batman: El Misterio de Capucha Roja [BDRip 720p][LATiNO/Cast/Ingles[Sub][2010] Pelicula Gratis



Necesitás estar Registrado para dejar comentarios en la descarga Batman: El Misterio de Capucha Roja [BDRip 720p][LATiNO/Cast/Ingles[Sub][2010]

Información del Post