El Exorcismo En Connecticut 2 [BDRip 720p][Ingles AC3 5.1 & DTS][Sub Esp][2013][Terror]


Descargar El Exorcismo En Connecticut 2 [BDRip 720p][Ingles AC3 5.1 & DTS][Sub Esp][2013][Terror] Película Gratis 1 link por Mega y Mediafire



Argentina Warez » Descargas Gratis » Películas Gratis El Exorcismo En Connecticut 2 [BDRip 720p][Ingles AC3 5.1 & DTS][Sub Esp][2013][Terror]
15-abr-2013
cadagoto
Premium User
El Exorcismo En Connecticut 2 [BDRip 720p][Ingles AC3 5.1 & DTS][Sub Esp][2013][Terror]

El Exorcismo En Connecticut 2 [BDRip 720p][Ingles AC3 5.1 & DTS][Sub Esp][2013][Terror]



Ficha Técnica
The Haunting in Connecticut 2 Ghosts of Georgia
El Exorcismo En Connecticut 2 Fantasmas De Georgia
AÑO: 2013
DURACIÓN: 100 min.
PAÍS: Estados Unidos
DIRECTOR: Tom Elkins
GUIÓN: David Coggeshall
MÚSICA: Michael Wandmacher
FOTOGRAFÍA: Yaron Levy
REPARTO: Chad Michael Murray, Katee Sackhoff, Abigail Spencer, Monica Acosta
PRODUCTORA: Gold Circle Films
GÉNERO: Terror | Posesiones/Exorcismos. Casas encantadas. Basado en hechos reales

Sinopsis
Poco después de instalarse en su nueva casa de Georgia, una pareja descubre que su hija mantiene misteriosos encuentros con personas que sólo ella parece ver. La situación se complica cuando también los padres son testigos de extraños fenómenos alrededor de la casa, que sugieren un escalofriante misterio que se ha mantenido en secreto durante generaciones.

Datos Técnicos
Código:
General
Format                                   : Matroska
Format version                           : Version 2
File size                                : 4.82 GiB
Duration                                 : 1h 40mn
Overall bit rate                         : 6 836 Kbps
Movie name                               : CadagotoHD.Com  ¡Visítanos!
Encoded date                             : UTC 2013-04-15 22:15:42
Writing application                      : mkvmerge v3.4.0 ('Rapunzel') built on May 15 2010 09:38:20
Writing library                          : libebml v0.8.0 + libmatroska v0.9.0

Video
ID                                       : 1
Format                                   : AVC
Format/Info                              : Advanced Video Codec
Format profile                           : High@L4.1
Format settings, CABAC                   : Yes
Format settings, ReFrames                : 5 frames
Codec ID                                 : V_MPEG4/ISO/AVC
Duration                                 : 1h 40mn
Bit rate                                 : 4 693 Kbps
Width                                    : 1 280 pixels
Height                                   : 544 pixels
Display aspect ratio                     : 2.35:1
Frame rate mode                          : Constant
Frame rate                               : 23.976 fps
Color space                              : YUV
Chroma subsampling                       : 4:2:0
Bit depth                                : 8 bits
Scan type                                : Progressive
Bits/(Pixel*Frame)                       : 0.281
Stream size                              : 3.21 GiB (67%)
Title                                    : CadagotoHD.Com  ¡Visítanos!
Writing library                          : x264 core 130 r2273 b3065e6
Encoding settings                        : cabac=1 / ref=5 / deblock=1:0:0 / analyse=0x3:0x133 / me=umh / subme=7 / psy=1 / psy_rd=1.00:0.00 / mixed_ref=1 / me_range=16 / chroma_me=1 / trellis=1 / 8x8dct=1 / cqm=0 / deadzone=21,11 / fast_pskip=0 / chroma_qp_offset=-2 / threads=12 / lookahead_threads=2 / sliced_threads=0 / nr=0 / decimate=1 / interlaced=0 / bluray_compat=0 / constrained_intra=0 / bframes=3 / b_pyramid=2 / b_adapt=2 / b_bias=0 / direct=1 / weightb=1 / open_gop=0 / weightp=2 / keyint=250 / keyint_min=23 / scenecut=40 / intra_refresh=0 / rc_lookahead=40 / rc=2pass / mbtree=1 / bitrate=4693 / ratetol=1.0 / qcomp=0.60 / qpmin=0 / qpmax=69 / qpstep=4 / cplxblur=20.0 / qblur=0.5 / ip_ratio=1.40 / aq=1:1.00
Language                                 : English
Default                                  : No
Forced                                   : No

Audio #1
ID                                       : 2
Format                                   : AC-3
Format/Info                              : Audio Coding 3
Mode extension                           : CM (complete main)
Format settings, Endianness              : Big
Codec ID                                 : A_AC3
Duration                                 : 1h 40mn
Bit rate mode                            : Constant
Bit rate                                 : 640 Kbps
Channel(s)                               : 6 channels
Channel positions                        : Front: L C R, Side: L R, LFE
Sampling rate                            : 48.0 KHz
Bit depth                                : 16 bits
Compression mode                         : Lossy
Stream size                              : 462 MiB (9%)
Title                                    : CadagotoHD.Com  -  Audio Ingles AC3 5.1
Language                                 : English
Default                                  : No
Forced                                   : No

Audio #2
ID                                       : 3
Format                                   : DTS
Format/Info                              : Digital Theater Systems
Mode                                     : 16
Format settings, Endianness              : Big
Codec ID                                 : A_DTS
Duration                                 : 1h 40mn
Bit rate mode                            : Constant
Bit rate                                 : 1 509 Kbps
Channel(s)                               : 6 channels
Channel positions                        : Front: L C R, Side: L R, LFE
Sampling rate                            : 48.0 KHz
Bit depth                                : 24 bits
Compression mode                         : Lossy
Delay relative to video                  : 11ms
Stream size                              : 1.06 GiB (22%)
Title                                    : CadagotoHD.Com  -  Audio Ingles DTS
Language                                 : English
Default                                  : No
Forced                                   : No

Text #1
ID                                       : 4
Format                                   : UTF-8
Codec ID                                 : S_TEXT/UTF8
Codec ID/Info                            : UTF-8 Plain Text
Title                                    : CadagotoHD.Com - Subtitulos Español Latino
Language                                 : Spanish
Default                                  : Yes
Forced                                   : Yes

Text #2
ID                                       : 5
Format                                   : UTF-8
Codec ID                                 : S_TEXT/UTF8
Codec ID/Info                            : UTF-8 Plain Text
Language                                 : English
Default                                  : No
Forced                                   : No















Descargar Enlaces AQUI
http://s2l.biz/hl8mblmlqoolb



Utiliza los Archivos .REV si tienes problema con 1,2,3 archivos en su descarga , Esté off o corruptos

Si necesitas 2 archivos , Bajas 2 REV y los reconstruirán Cualquiera que fuesen los que te falten !

Descargar El Exorcismo En Connecticut 2 [BDRip 720p][Ingles AC3 5.1 & DTS][Sub Esp][2013][Terror] Pelicula Gratis



Necesitás estar Registrado para dejar comentarios en El Exorcismo En Connecticut 2 [BDRip 720p][Ingles AC3 5.1 & DTS][Sub Esp][2013][Terror]

Información del Post