Iron Man 2013 R6 LINE NEW AUDIO AAC x264-SSDD Version 2


Descargar Iron Man 2013 R6 LINE NEW AUDIO AAC x264-SSDD Version 2 Película Gratis 1 link por Mega y Mediafire



Argentina Warez » Descargas Gratis » Películas Gratis Iron Man 2013 R6 LINE NEW AUDIO AAC x264-SSDD Version 2
13-may-2013
znt00
Baneado ;(
Iron Man 2013 R6 LINE NEW AUDIO AAC x264-SSDD Version 2
Iron Man 2013 R6 LINE NEW AUDIO AAC x264-SSDD Version 2

Código:
IMDB Link - http://www.imdb.com/title/tt1300854/

Source - Iron Man 2013 R6 LINE Xvid NEW AUDIO READ NFO UnKnOwN

NOTES - Enjoy. This is a version 2 with better audio from the Unknown source mentioned above.

General
Complete name                            : Iron Man 2013 R6 LINE NEW AUDIO AAC x264-SSDD Version 2.mp4
Format                                   : MPEG-4
Format profile                           : Base Media
Codec ID                                 : isom
File size                                : 600 MiB
Duration                                 : 2h 2mn
Overall bit rate mode                    : Variable
Overall bit rate                         : 688 Kbps

Video
ID                                       : 1
Format                                   : AVC
Format/Info                              : Advanced Video Codec
Format profile                           : High@L4.1
Format settings, CABAC                   : Yes
Format settings, ReFrames                : 4 frames
Codec ID                                 : avc1
Codec ID/Info                            : Advanced Video Coding
Duration                                 : 2h 2mn
Bit rate                                 : 620 Kbps
Maximum bit rate                         : 2 019 Kbps
Width                                    : 700 pixels
Height                                   : 294 pixels
Display aspect ratio                     : 2.40:1
Frame rate mode                          : Constant
Frame rate                               : 29.970 fps
Color space                              : YUV
Chroma subsampling                       : 4:2:0
Bit depth                                : 8 bits
Scan type                                : Progressive
Bits/(Pixel*Frame)                       : 0.101
Stream size                              : 542 MiB (90%)
Writing library                          : x264 core 130 r2273 b3065e6

Audio
ID                                       : 2
Format                                   : AAC
Format/Info                              : Advanced Audio Codec
Format profile                           : LC
Codec ID                                 : 40
Duration                                 : 2h 2mn
Bit rate mode                            : Variable
Bit rate                                 : 64.0 Kbps
Maximum bit rate                         : 67.6 Kbps
Channel(s)                               : 2 channels
Channel positions                        : Front: L R
Sampling rate                            : 48.0 KHz
Compression mode                         : Lossy
Stream size                              : 55.9 MiB (9%)






Download:
Código:
http://uploaded.net/file/s32dkatx/Iron%20Man%202013%20R6%20LINE%20NEW%20AUDIO%20AAC%20x264-SSDD%20Version%202.mp4

Descargar Iron Man 2013 R6 LINE NEW AUDIO AAC x264-SSDD Version 2 Pelicula Gratis



Necesitás estar Registrado para dejar comentarios en Iron Man 2013 R6 LINE NEW AUDIO AAC x264-SSDD Version 2

Información del Post