Oz El Poderoso BDRip 720p Español LATiNO AC3 5.1/Ingles DTS Sub Esp [2013][Fantástico]


Descargar Oz El Poderoso BDRip 720p Español LATiNO AC3 5.1/Ingles DTS Sub Esp [2013][Fantástico] Película Gratis 1 link por Mega y Mediafire



Argentina Warez » Descargas Gratis » Películas Gratis Oz El Poderoso BDRip 720p Español LATiNO AC3 5.1/Ingles DTS Sub Esp [2013][Fantástico]
25-may-2013
cadagoto
Premium User
Oz El Poderoso BDRip 720p Español LATiNO AC3 5.1/Ingles DTS Sub Esp [2013][Fantástico]

Oz El Poderoso BDRip 720p Español LATiNO AC3 5.1/Ingles DTS Sub Esp [2013][Fantástico]



Ficha Técnica
Título original Oz: The Great and Powerful
Oz El Poderoso
Año 2013
Duración 127 min.
País [Estados Unidos]
Director Sam Raimi
Guión Mitchell Kapner, David Lindsay-Abaire (Novela: L. Frank Baum)
Música Danny Elfman
Fotografía :Peter Deming
Reparto: James Franco, Mila Kunis, Rachel Weisz, Michelle Williams, Abigail Spencer, Zach Braff, Joey King, Bill Cobbs, Stephen R. Hart, Martin Klebba, Tony Cox, Otis Winston, Bruce Campbell, Ted Raimi, Tim Holmes, Toni Wynne, Rob Crites, John Paxton, William Dick
Productora Walt Disney Pictures / Roth Films
Género Fantástico. Aventuras | Precuela. Cuentos

Sinopsis
Oscar Diggs (James Franco), un mago de circo de dudosa reputación, tiene que abandonar la polvorienta Kansas y trasladarse al brillante País de Oz. Está convencido de que a partir de ahora la fama y la fortuna le sonreirán. Pero, cuando las brujas Theodora (Mila Kunis), Evanora (Rachel Weisz) y Glinda (Michelle Williams) empiezan a dudar de su categoria como mago, empezará a tener problemas. Si quiere triunfar, tendrá que averiguar cuanto antes quiénes son los buenos y quiénes los malos. (FILMAFFINITY)

Datos Técnicos
Código:
General
Format                                   : Matroska
Format version                           : Version 2
File size                                : 6.62 GiB
Duration                                 : 2h 10mn
Overall bit rate                         : 7 263 Kbps
Movie name                               : CadagotoHD.Com  ¡Visítanos!
Encoded date                             : UTC 2013-05-25 04:05:13
Writing application                      : mkvmerge v3.4.0 ('Rapunzel') built on May 15 2010 09:38:20
Writing library                          : libebml v0.8.0 + libmatroska v0.9.0

Video
ID                                       : 1
Format                                   : AVC
Format/Info                              : Advanced Video Codec
Format profile                           : High@L4.1
Format settings, CABAC                   : Yes
Format settings, ReFrames                : 5 frames
Codec ID                                 : V_MPEG4/ISO/AVC
Duration                                 : 2h 10mn
Bit rate                                 : 4 476 Kbps
Width                                    : 1 280 pixels
Height                                   : 536 pixels
Display aspect ratio                     : 2.40:1
Frame rate mode                          : Constant
Frame rate                               : 23.976 fps
Color space                              : YUV
Chroma subsampling                       : 4:2:0
Bit depth                                : 8 bits
Scan type                                : Progressive
Bits/(Pixel*Frame)                       : 0.272
Stream size                              : 3.95 GiB (60%)
Title                                    : CadagotoHD.Com  ¡Visítanos!
Writing library                          : x264 core 133 r2334 a3ac64b
Encoding settings                        : cabac=1 / ref=5 / deblock=1:0:0 / analyse=0x3:0x133 / me=umh / subme=7 / psy=1 / psy_rd=1.00:0.00 / mixed_ref=1 / me_range=16 / chroma_me=1 / trellis=1 / 8x8dct=1 / cqm=0 / deadzone=21,11 / fast_pskip=0 / chroma_qp_offset=-2 / threads=18 / lookahead_threads=3 / sliced_threads=0 / nr=0 / decimate=1 / interlaced=0 / bluray_compat=0 / constrained_intra=0 / bframes=3 / b_pyramid=2 / b_adapt=1 / b_bias=0 / direct=1 / weightb=1 / open_gop=0 / weightp=2 / keyint=250 / keyint_min=23 / scenecut=40 / intra_refresh=0 / rc_lookahead=40 / rc=2pass / mbtree=1 / bitrate=4476 / ratetol=1.0 / qcomp=0.60 / qpmin=0 / qpmax=69 / qpstep=4 / cplxblur=20.0 / qblur=0.5 / ip_ratio=1.40 / aq=1:1.00
Language                                 : English
Default                                  : No
Forced                                   : No

Audio #1
ID                                       : 2
Format                                   : AC-3
Format/Info                              : Audio Coding 3
Mode extension                           : CM (complete main)
Format settings, Endianness              : Big
Codec ID                                 : A_AC3
Duration                                 : 2h 10mn
Bit rate mode                            : Constant
Bit rate                                 : 640 Kbps
Channel(s)                               : 6 channels
Channel positions                        : Front: L C R, Side: L R, LFE
Sampling rate                            : 48.0 KHz
Bit depth                                : 16 bits
Compression mode                         : Lossy
Delay relative to video                  : 55s 500ms
Stream size                              : 597 MiB (9%)
Title                                    : CadagotoHD.Com  -  Audio Español Latino AC3 5.1
Language                                 : Spanish
Default                                  : Yes
Forced                                   : Yes

Audio #2
ID                                       : 3
Format                                   : AC-3
Format/Info                              : Audio Coding 3
Mode extension                           : CM (complete main)
Format settings, Endianness              : Big
Codec ID                                 : A_AC3
Duration                                 : 2h 10mn
Bit rate mode                            : Constant
Bit rate                                 : 640 Kbps
Channel(s)                               : 6 channels
Channel positions                        : Front: L C R, Side: L R, LFE
Sampling rate                            : 48.0 KHz
Bit depth                                : 16 bits
Compression mode                         : Lossy
Stream size                              : 597 MiB (9%)
Title                                    : CadagotoHD.Com  -  Audio Ingles AC3 5.1
Language                                 : English
Default                                  : No
Forced                                   : No

Audio #3
ID                                       : 4
Format                                   : DTS
Format/Info                              : Digital Theater Systems
Mode                                     : 16
Format settings, Endianness              : Big
Codec ID                                 : A_DTS
Duration                                 : 2h 10mn
Bit rate mode                            : Constant
Bit rate                                 : 1 509 Kbps
Channel(s)                               : 6 channels
Channel positions                        : Front: L C R, Side: L R, LFE
Sampling rate                            : 48.0 KHz
Bit depth                                : 24 bits
Compression mode                         : Lossy
Delay relative to video                  : 11ms
Stream size                              : 1.38 GiB (21%)
Title                                    : CadagotoHD.Com  -  Audio Ingles DTS
Language                                 : English
Default                                  : No
Forced                                   : No

Text #1
ID                                       : 5
Format                                   : UTF-8
Codec ID                                 : S_TEXT/UTF8
Codec ID/Info                            : UTF-8 Plain Text
Language                                 : Spanish
Default                                  : Yes
Forced                                   : Yes

Text #2
ID                                       : 6
Format                                   : UTF-8
Codec ID                                 : S_TEXT/UTF8
Codec ID/Info                            : UTF-8 Plain Text
Title                                    : CadagotoHD.Com - Subtitulos Español Latino
Language                                 : Spanish
Default                                  : No
Forced                                   : No

Menu
00:00:00.000                             : en:00:00:00.000
00:02:37.699                             : en:00:02:37.699
00:06:16.960                             : en:00:06:16.960
00:09:57.555                             : en:00:09:57.555
00:11:32.692                             : en:00:11:32.692
00:15:20.753                             : en:00:15:20.753
00:17:47.191                             : en:00:17:47.191
00:20:29.478                             : en:00:20:29.478
00:24:01.982                             : en:00:24:01.982
00:24:49.780                             : en:00:24:49.780
00:27:01.662                             : en:00:27:01.662
00:29:37.359                             : en:00:29:37.359
00:32:43.420                             : en:00:32:43.420
00:34:30.193                             : en:00:34:30.193
00:37:22.657                             : en:00:37:22.657
00:38:57.377                             : en:00:38:57.377
00:40:39.145                             : en:00:40:39.145
00:42:09.944                             : en:00:42:09.944
00:42:52.445                             : en:00:42:52.445
00:45:33.481                             : en:00:45:33.481
00:47:22.840                             : en:00:47:22.840
00:48:32.409                             : en:00:48:32.409
00:53:29.832                             : en:00:53:29.832
00:55:22.653                             : en:00:55:22.653
00:57:15.932                             : en:00:57:15.932
00:59:10.839                             : en:00:59:10.839
01:02:05.263                             : en:01:02:05.263
01:05:33.221                             : en:01:05:33.221
01:06:21.102                             : en:01:06:21.102
01:09:55.775                             : en:01:09:55.775
01:12:20.836                             : en:01:12:20.836
01:15:37.783                             : en:01:15:37.783
01:18:20.321                             : en:01:18:20.321
01:19:47.783                             : en:01:19:47.783
01:21:27.883                             : en:01:21:27.883
01:26:16.171                             : en:01:26:16.171
01:28:08.783                             : en:01:28:08.783
01:30:33.219                             : en:01:30:33.219
01:34:24.117                             : en:01:34:24.117
01:36:57.437                             : en:01:36:57.437
01:37:35.975                             : en:01:37:35.975
01:41:30.876                             : en:01:41:30.876
01:42:30.394                             : en:01:42:30.394
01:45:51.762                             : en:01:45:51.762
01:48:33.424                             : en:01:48:33.424
01:51:23.802                             : en:01:51:23.802
01:54:26.318                             : en:01:54:26.318
01:55:54.072                             : en:01:55:54.072
01:57:58.405                             : en:01:57:58.405
01:59:34.417                             : en:01:59:34.417
02:02:49.571                             : en:02:02:49.571
02:04:32.757                             : en:02:04:32.757



















Descargar Enlaces AQUI
http://share-links.biz/_xxh2dnma5jc/...CadagotoHD.Com


Utiliza los Archivos .REV si tienes problema con 1,2,3 archivos en su descarga , Esté off o corruptos

Si necesitas 2 archivos , Bajas 2 REV y los reconstruirán Cualquiera que fuesen los que te falten !

Descargar Oz El Poderoso BDRip 720p Español LATiNO AC3 5.1/Ingles DTS Sub Esp [2013][Fantástico] Pelicula Gratis



Necesitás estar Registrado para dejar comentarios en la descarga Oz El Poderoso BDRip 720p Español LATiNO AC3 5.1/Ingles DTS Sub Esp [2013][Fantástico]

Información del Post