Argentina Warez » Descargas Gratis » Películas Gratis Héroes Del Espacio BDRip 720p Español LATiNO 5.1/Ingles DTS Sub Esp [2013]
11-jun-2013
cadagoto
Premium User
Héroes Del Espacio BDRip 720p Español LATiNO 5.1/Ingles DTS Sub Esp [2013]

Héroes Del Espacio BDRip 720p Español LATiNO 5.1/Ingles DTS Sub Esp [2013][Animación]



Ficha Técnica
Título original : Escape from Planet Earth
Héroes del espacio : Argentina , Chile
Operación escape : Mexico , Peru
Año : 2013
Duración : 89 min.
País : Estados Unidos
Director : Callan Brunker
Guión : Bob Barlen, Callan Brunker, Cory Edwards, Tony Leech
Música : Aaron *****n
Fotografía : Matthew A. Ward
Reparto : Animation
Productora : Blue Yonder Films
Género : Animación. Comedia. Ciencia ficción. Infantil | Extraterrestres. 3-D

Sinopsis
La cinta, ambientada en el planeta Baab, cuenta la historia del admirado astronauta Scorch Supernova (Fraser), un héroe nacional del pueblo baabariano. Maestro en rescates audaces, Scorch realiza hazañas asombrosas con la ayuda de su hermano Gary (Corddry), jefe de control de misión en la BASA. Cuando Lena (Alba), jefe de la BASA, informa a los hermanos de un SOS en un planeta conocido por su peligrosidad Scorch rechaza las advertencias de Gary y caerá de lleno en una trampa diabólica a manos del maléfico Shanker (Gandolfini). Ahora Gary tendrá que convertirse en el héroe para rescatar a su hermano, a su planeta, a su amada esposa Kira (Parker) y a su hijo Kip.

Datos Técnicos
Código:
General
Format                                   : Matroska
Format version                           : Version 2
File size                                : 3.91 GiB
Duration                                 : 1h 29mn
Overall bit rate                         : 6 277 Kbps
Movie name                               : CadagotoHD.Com  ¡Visítanos!
Encoded date                             : UTC 2013-06-10 01:50:42
Writing application                      : mkvmerge v3.4.0 ('Rapunzel') built on May 15 2010 09:38:20
Writing library                          : libebml v0.8.0 + libmatroska v0.9.0

Video
ID                                       : 1
Format                                   : AVC
Format/Info                              : Advanced Video Codec
Format profile                           : High@L4.1
Format settings, CABAC                   : Yes
Format settings, ReFrames                : 5 frames
Codec ID                                 : V_MPEG4/ISO/AVC
Duration                                 : 1h 29mn
Bit rate                                 : 3 745 Kbps
Width                                    : 1 280 pixels
Height                                   : 536 pixels
Display aspect ratio                     : 2.40:1
Frame rate mode                          : Constant
Frame rate                               : 23.976 fps
Color space                              : YUV
Chroma subsampling                       : 4:2:0
Bit depth                                : 8 bits
Scan type                                : Progressive
Bits/(Pixel*Frame)                       : 0.228
Stream size                              : 2.26 GiB (58%)
Title                                    : CadagotoHD.Com  ¡Visítanos!
Writing library                          : x264 core 132 r2310 76a5c3a
Encoding settings                        : cabac=1 / ref=5 / deblock=1:0:0 / analyse=0x3:0x133 / me=umh / subme=7 / psy=1 / psy_rd=1.00:0.00 / mixed_ref=1 / me_range=16 / chroma_me=1 / trellis=1 / 8x8dct=1 / cqm=0 / deadzone=21,11 / fast_pskip=0 / chroma_qp_offset=-2 / threads=36 / lookahead_threads=4 / sliced_threads=0 / nr=0 / decimate=1 / interlaced=0 / bluray_compat=0 / constrained_intra=0 / bframes=3 / b_pyramid=2 / b_adapt=1 / b_bias=0 / direct=1 / weightb=1 / open_gop=0 / weightp=2 / keyint=250 / keyint_min=23 / scenecut=40 / intra_refresh=0 / rc_lookahead=40 / rc=2pass / mbtree=1 / bitrate=3745 / ratetol=1.0 / qcomp=0.60 / qpmin=0 / qpmax=69 / qpstep=4 / cplxblur=20.0 / qblur=0.5 / ip_ratio=1.40 / aq=1:1.00
Language                                 : English
Default                                  : No
Forced                                   : No

Audio #1
ID                                       : 2
Format                                   : AC-3
Format/Info                              : Audio Coding 3
Mode extension                           : CM (complete main)
Format settings, Endianness              : Big
Codec ID                                 : A_AC3
Duration                                 : 1h 29mn
Bit rate mode                            : Constant
Bit rate                                 : 384 Kbps
Channel(s)                               : 6 channels
Channel positions                        : Front: L C R, Side: L R, LFE
Sampling rate                            : 48.0 KHz
Bit depth                                : 16 bits
Compression mode                         : Lossy
Stream size                              : 245 MiB (6%)
Title                                    : CadagotoHD.Com  -  Audio Español Latino AC3 5.1 384 Kbps
Language                                 : Spanish
Default                                  : Yes
Forced                                   : Yes

Audio #2
ID                                       : 3
Format                                   : AC-3
Format/Info                              : Audio Coding 3
Mode extension                           : CM (complete main)
Format settings, Endianness              : Big
Codec ID                                 : A_AC3
Duration                                 : 1h 29mn
Bit rate mode                            : Constant
Bit rate                                 : 640 Kbps
Channel(s)                               : 6 channels
Channel positions                        : Front: L C R, Side: L R, LFE
Sampling rate                            : 48.0 KHz
Bit depth                                : 16 bits
Compression mode                         : Lossy
Stream size                              : 408 MiB (10%)
Title                                    : CadagotoHD.Com  -  Audio Ingles AC3 5.1 640 Kbps
Language                                 : English
Default                                  : No
Forced                                   : No

Audio #3
ID                                       : 4
Format                                   : DTS
Format/Info                              : Digital Theater Systems
Mode                                     : 16
Format settings, Endianness              : Big
Codec ID                                 : A_DTS
Duration                                 : 1h 29mn
Bit rate mode                            : Constant
Bit rate                                 : 1 509 Kbps
Channel(s)                               : 6 channels
Channel positions                        : Front: L C R, Side: L R, LFE
Sampling rate                            : 48.0 KHz
Bit depth                                : 24 bits
Compression mode                         : Lossy
Delay relative to video                  : 11ms
Stream size                              : 963 MiB (24%)
Title                                    : CadagotoHD.Com  -  Audio Ingles DTS 1509 Kbps
Language                                 : English
Default                                  : No
Forced                                   : No

Text #1
ID                                       : 5
Format                                   : UTF-8
Codec ID                                 : S_TEXT/UTF8
Codec ID/Info                            : UTF-8 Plain Text
Language                                 : Spanish
Default                                  : Yes
Forced                                   : Yes

Text #2
ID                                       : 6
Format                                   : UTF-8
Codec ID                                 : S_TEXT/UTF8
Codec ID/Info                            : UTF-8 Plain Text
Title                                    : CadagotoHD.Com - Subtitulos Español Latino
Language                                 : Spanish
Default                                  : No
Forced                                   : No

Menu
00:00:00.000                             : en:00:00:00.000
00:05:00.550                             : en:00:05:00.550
00:09:23.271                             : en:00:09:23.271
00:14:12.602                             : en:00:14:12.602
00:21:21.447                             : en:00:21:21.447
00:28:13.859                             : en:00:28:13.859
00:32:03.672                             : en:00:32:03.672
00:36:05.413                             : en:00:36:05.413
00:42:05.606                             : en:00:42:05.606
00:46:22.989                             : en:00:46:22.989
00:51:34.675                             : en:00:51:34.675
00:58:33.510                             : en:00:58:33.510
01:03:24.259                             : en:01:03:24.259
01:08:47.915                             : en:01:08:47.915
01:17:29.728                             : en:01:17:29.728
01:21:45.484                             : en:01:21:45.484

















Descargar Enlaces AQUI
http://s2l.biz/p7fk8omdndfy




Utiliza los Archivos .REV si tienes problema con 1,2,3 archivos en su descarga , Esté off o corruptos

Si necesitas 2 archivos , Bajas 2 REV y los reconstruirán Cualquiera que fuesen los que te falten !

Descargar Héroes Del Espacio BDRip 720p Español LATiNO 5.1/Ingles DTS Sub Esp [2013] Pelicula Gratis



Necesitás estar Registrado para dejar comentarios en Héroes Del Espacio BDRip 720p Español LATiNO 5.1/Ingles DTS Sub Esp [2013]

Información del Post