Descargar Mar Adentro (The Sea Inside) [2004]DVDRip.XviD Gratis en Castellano


Descargar Descargar Mar Adentro (The Sea Inside) [2004]DVDRip.XviD Gratis en Castellano Película Gratis 1 link por Mega y Mediafire



Argentina Warez » Descargas Gratis » Películas Gratis Descargar Mar Adentro (The Sea Inside) [2004]DVDRip.XviD Gratis en Castellano
04-ago-2013
emina83
Silver User
Descargar Mar Adentro (The Sea Inside) [2004]DVDRip.XviD Gratis en Castellano
Mar Adentro (The Sea Inside) [2004]DVDRip.XviD

125min. | AVI | 700 MB

Ficha técnica:

Título original: Mar adentro
Año: 2004
Duración: 125min.
País: España
Director: Alejandro Amenábar
Producción: Fernando Bovaira, Alejandro Amenábar
Guión: Alejandro Amenábar, Mateo Gil
Música: Alejandro Amenábar, Carlos Núñez
Fotografía: Javier Aguirresarobe
Montaje: Iván Aledo
Dirección artística: Benjamín Fernández
Vestuario: Sonia Grande
Estreno en España: 3 Septiembre 2004
Estados Unidos: 17 de Diciembre 2004
Reino Unido: 11 de Febrero 2005
Productora: Sogecine / Himenóptero / UGC Images / Eyescreen
Género: Drama | Basado en hechos reales. Discapacidad. Biográfico
Premios:
2004: Oscar: Mejor película habla no inglesa
2004: Globos de Oro: Mejor Película de habla no inglesa. 2 nominaciones
2004: 14 Premios Goya, incluyendo mejor película, director, actor. 15 nominaciones
2004: Festival de Venecia: León de Plata - Premio Especial del Jurado, Mejor Actor (Bardem)
2004: Premios del Cine Europeo: Mejor Director, Mejor Actor (Bardem)
2004: Premios David di Donatello: Mejor película europea
2004: National Board of Review: Mejor película extranjera
2004: Critics' Choice Awards: Mejor película de habla no inglesa. 2 nominaciones
2005: Premios Ariel: Nominada a Mejor película iberoamericana
2005: Nominada al Cesar: Mejor película extranjera
Sinopsis:
Mar adentro es una película española ganadora del Óscar, filmada en 2004 y dirigida por Alejandro Amenábar. La película se basa en la historia real de Ramón Sampedro, marinero, que tras un accidente en su juventud queda tetrapléjico y permanece postrado en una cama durante cerca de 30 años y que desea morir dignamente.

Ramón (Javier Bardem) lleva casi treinta años postrado en una cama al cuidado de su familia. Su única ventana al mundo es la de su habitación, que da al mar, donde sufrió el accidente que interrumpió su juventud. Desde entonces, su único deseo es morir dignamente. En su vida ejercen una gran influencia dos mujeres: Julia (Belén Rueda), una abogada que apoya su causa, y Rosa (Lola Dueñas), una vecina que intenta convencerlo de que vivir merece la pena. Pero también ellas, cautivadas por la luminosa personalidad de Ramón, se replantearán los principios que rigen sus vidas. Él sabe que sólo quien de verdad le ame le ayudará a emprender el último viaje.

Interpretación:
Javier Bardem, Belén Rueda, Lola Dueñas, Mabel Rivera, Clara Segura, Joan Dalmau, Tamar Novas, Josep Maria Pou, Celso Bugallo, Frances Garrido

MEDIAINFO
Spoiler
General
Complete name Mar Adentro (The Sea Inside) 2004.DVDRip.XviD.avi
Format : AVI
Format/Info : Audio Video Interleave
File size : 700 MiB
Duration : 2h 0mn
Overall bit rate mode : Variable
Overall bit rate : 812 Kbps
Writing application : VirtualDubMod 1.5.10.1 (build 2439/release)
Writing library : VirtualDubMod build 2439/release

Video
ID : 0
Format : MPEG-4 Visual
Format profile : Advanced Simple@L5
Format settings, BVOP : 1
Format settings, QPel : No
Format settings, GMC : No warppoints
Format settings, Matrix : Default (H.263)
Codec ID : XVID
Codec ID/Hint : XviD
Duration : 2h 0mn
Bit rate : 673 Kbps
Width : 624 pixels
Height : 256 pixels
Display aspect ratio : 2.40:1
Frame rate : 25.000 fps
Color space : YUV
Chroma subsampling : 4:2:0
Bit depth : 8 bits
Scan type : Progressive
Compression mode : Lossy
Bits/(Pixel*Frame) : 0.168
Stream size : 580 MiB (83%)
Writing library : XviD 1.0.2 (UTC 2004-08-29)

Audio
ID : 1
Format : MPEG Audio
Format version : Version 1
Format profile : Layer 3
Mode : Joint stereo
Mode extension : MS Stereo
Codec ID : 55
Codec ID/Hint : MP3
Duration : 2h 0mn
Bit rate mode : Variable
Bit rate : 128 Kbps
Channel(s) : 2 channels
Sampling rate : 48.0 KHz
Compression mode : Lossy
Stream size : 109 MiB (16%)
Alignment : Aligned on interleaves
Interleave, duration : 24 ms (0.60 video frame)
Interleave, preload duration : 146 ms
Writing library : LAME3.90.
Encoding settings : -m j -V 4 -q 2 -lowpass 17.6 --abr 128


Screenshots



DESCARGA: Depositfiles- 1 LINK
http://adf.ly/ZeS5h

Trailer:

Descargar Descargar Mar Adentro (The Sea Inside) [2004]DVDRip.XviD Gratis en Castellano Pelicula Gratis


20-nov-2013
emina83
Silver User
Re: Descargar Mar Adentro (The Sea Inside) [2004]DVDRip.XviD Gratis en Castellano
Pelicula resubida
21-nov-2013
LALM56
Gold User
Re: Descargar Mar Adentro (The Sea Inside) [2004]DVDRip.XviD Gratis en Castellano
muchas graxxxxxxxxxsssssssss !!!!!!
21-nov-2013
Febloc
Black User
Re: Descargar Mar Adentro (The Sea Inside) [2004]DVDRip.XviD Gratis en Castellano
Gracias por el excelente aporte. Si ha recibido tanos elogios algo debe tener la pelicula. Bajandose para verla el domingo.

Saludos
21-nov-2013
emina83
Silver User
Re: Descargar Mar Adentro (The Sea Inside) [2004]DVDRip.XviD Gratis en Castellano
De nada, bueno a mi personalmente me ha gustado mucho la pelicula; trata un tema bastante delicado
Vale la pena verla, un saludo

Necesitás estar Registrado para dejar comentarios en la descarga Descargar Mar Adentro (The Sea Inside) [2004]DVDRip.XviD Gratis en Castellano

Información del Post