Argentina Warez » Descargas Gratis » Películas Gratis Iron Man 3 + Extras (2013) | BDRip 720p | Dual Español Latino-Inglés | 5 GB |
27-ago-2013
camix2008
Premier User
Iron Man 3 + Extras (2013) | BDRip 720p | Dual Español Latino-Inglés | 5 GB |
Iron Man 3 + Extras (2013) | BDRip 720p | Dual Español Latino-Inglés | 4.47 GB |




TÍTULO ORIGINAL: Iron Man 3 (Ironman 3)
AÑO: 2013
PAÍS: USA
DURACIÓN: 130 min.
DIRECTOR: Shane Black
REPARTO: Robert Downey Jr., Ben Kingsley, Gwyneth Paltrow, Don Cheadle, Guy Pearce, Rebecca Hall, James Badge Dale, Stephanie Szostak, Ty Simpkins, Wang Xueqi, Jon Favreau, William Sadler, Miguel Ferrer, Bingbing Fan, Yvonne Zima, Dale Dickey, Ashley Hamilton, Stan Lee
GUIÓN: Shane Black, Drew Pearce (Personajes: Stan Lee)
MÚSICA: Brian Tyler
FOTOGRAFÍA: John Toll
PRODUCTORA: M4rv3l Stud10s / W4lt D1sn3y P1ctur3s
GÉNERO: Fantástico. Ciencia ficción. Acción. Superhéroes. Cómic. Marvel Comics. Secuela. 3-D. Robots. Terrorismo
FECHA DE ESTRENO REINO UNIDO: 18 de abril de 2013
FECHA DE ESTRENO ARGENTINA: 25 de abril de 2013
FECHA DE ESTRENO MÉXICO: 26 de abril de 2013
FECHA DE ESTRENO ESPAÑA: 26 de abril de 2013



El descarado y brillante empresario Tony Stark/Iron Man se enfrentará a un enemigo cuyo poder no conoce límites. Cuando Stark comprende que su enemigo ha destruido su universo personal, se embarca en una angustiosa búsqueda para encontrar a los responsables. Este viaje pondrá a prueba su entereza una y otra vez. Acorralado, Stark tendrá que sobrevivir por sus propios medios, confiando en su ingenio y su instinto para proteger a las personas que quiere.


Formato:mkv
Calidad:BDRip 720p + Extras | x264 |
Resolucion:1280x528
Tamaño:5 GB
Audios:Español Latino, Inglés
Subtítulos:Español, Inglés
Servidor: letitbit, RAPITGATOR, Uploaded, FREAKSHARE
Uploader:Camix2012

Código:
General
Unique ID                                : 242818020145555393475480885261207501159 (0xB6AD0CB2D0E1ECAF801DF9BFB12A7967)
Complete name                            : Iron.Man.3.2013.720p.BDRip.LATiNO.ENG.x264.AC3.DTS.mkv
Format                                   : Matroska
Format version                           : Version 4 / Version 2
File size                                : 4.47 GiB
Duration                                 : 2h 10mn
Overall bit rate mode                    : Variable
Overall bit rate                         : 4 904 Kbps
Movie name                               : Iron.Man.3.2013.720p.BDRip.LATiNO.ENG.x264.AC3.DTS 
Encoded date                             : UTC 2013-08-24 13:01:41
Writing application                      : mkvmerge v6.2.0 ('Promised Land') built on Apr 28 2013 12:22:01
Writing library                          : libebml v1.3.0 + libmatroska v1.4.0

Video
ID                                       : 1
Format                                   : AVC
Format/Info                              : Advanced Video Codec
Format profile                           : High 10@L4.1
Format settings, CABAC                   : Yes
Format settings, ReFrames                : 3 frames
Format settings, GOP                     : M=4, N=23
Codec ID                                 : V_MPEG4/ISO/AVC
Duration                                 : 2h 10mn
Bit rate mode                            : Variable
Bit rate                                 : 2 658 Kbps
Maximum bit rate                         : 14.0 Mbps
Width                                    : 1 280 pixels
Height                                   : 528 pixels
Display aspect ratio                     : 2.40:1
Frame rate mode                          : Constant
Frame rate                               : 23.976 fps
Color space                              : YUV
Chroma subsampling                       : 4:2:0
Bit depth                                : 10 bits
Scan type                                : Progressive
Bits/(Pixel*Frame)                       : 0.164
Stream size                              : 2.42 GiB (54%)
Writing library                          : x264 core 132 r2309 3b1f1f7
Encoding settings                        : cabac=1 / ref=4 / deblock=1:-1:-1 / analyse=0x3:0x133 / me=umh / subme=9 / psy=1 / psy_rd=1.00:0.15 / mixed_ref=1 / me_range=16 / chroma_me=1 / trellis=2 / 8x8dct=1 / cqm=0 / deadzone=21,11 / fast_pskip=1 / chroma_qp_offset=-3 / threads=12 / lookahead_threads=1 / sliced_threads=0 / slices=4 / slices_max=4 / nr=0 / decimate=1 / interlaced=0 / bluray_compat=0 / constrained_intra=0 / bframes=3 / b_pyramid=1 / b_adapt=2 / b_bias=0 / direct=3 / weightb=1 / open_gop=0 / weightp=0 / keyint=23 / keyint_min=1 / scenecut=40 / intra_refresh=0 / rc_lookahead=24 / rc=crf / mbtree=1 / crf=17.0 / qcomp=0.60 / qpmin=10 / qpmax=51 / qpstep=4 / vbv_maxrate=14000 / vbv_bufsize=14500 / crf_max=0.0 / nal_hrd=vbr / ip_ratio=1.40 / aq=1:1.00
Language                                 : English
Default                                  : Yes
Forced                                   : Yes

Audio #1
ID                                       : 2
Format                                   : AC-3
Format/Info                              : Audio Coding 3
Mode extension                           : CM (complete main)
Format settings, Endianness              : Big
Codec ID                                 : A_AC3
Duration                                 : 2h 10mn
Bit rate mode                            : Constant
Bit rate                                 : 640 Kbps
Channel(s)                               : 6 channels
Channel positions                        : Front: L C R, Side: L R, LFE
Sampling rate                            : 48.0 KHz
Bit depth                                : 16 bits
Compression mode                         : Lossy
Stream size                              : 598 MiB (13%)
Language                                 : Spanish
Default                                  : Yes
Forced                                   : Yes

Audio #2
ID                                       : 3
Format                                   : DTS
Format/Info                              : Digital Theater Systems
Mode                                     : 16
Format settings, Endianness              : Big
Codec ID                                 : A_DTS
Duration                                 : 2h 10mn
Bit rate mode                            : Constant
Bit rate                                 : 1 509 Kbps
Channel(s)                               : 6 channels
Channel positions                        : Front: L C R, Side: L R, LFE
Sampling rate                            : 48.0 KHz
Bit depth                                : 24 bits
Compression mode                         : Lossy
Stream size                              : 1.38 GiB (31%)
Language                                 : English
Default                                  : No
Forced                                   : No

Text #1
ID                                       : 4
Format                                   : UTF-8
Codec ID                                 : S_TEXT/UTF8
Codec ID/Info                            : UTF-8 Plain Text
Language                                 : English
Default                                  : No
Forced                                   : No

Text #2
ID                                       : 5
Format                                   : UTF-8
Codec ID                                 : S_TEXT/UTF8
Codec ID/Info                            : UTF-8 Plain Text
Language                                 : Spanish
Default                                  : No
Forced                                   : No

Text #3
ID                                       : 6
Format                                   : UTF-8
Codec ID                                 : S_TEXT/UTF8
Codec ID/Info                            : UTF-8 Plain Text
Title                                    : LATiNO
Language                                 : Spanish
Default                                  : Yes
Forced                                   : Yes

Menu
00:00:00.000                             : es:New Year's Eve, 1999
00:04:52.750                             : es:R60 Department
00:07:55.433                             : es:The Mandarin
00:12:12.440                             : es:Killian Returns
00:19:04.101                             : es:Tony & Pepper at Home
00:23:47.884                             : es:Happy Follows Savin
00:29:47.702                             : es:House Attack
00:39:46.384                             : es:Rose Hill, Tennessee
00:45:56.044                             : es:Unraveling the Past
00:59:19.639                             : es:The Mandarin Teaches a Lesson
01:01:56.921                             : es:Tony Hacks A.I.M.
01:09:24.451                             : es:Locating the Mandarin
01:18:41.508                             : es:Captured by Killian
01:23:52.944                             : es:Attack on Air Force One
01:37:55.995                             : es:Showdown at the Docks
01:56:18.304                             : es:New Beginnings
01:59:38.754                             : es:End Credits










Links
http://goldpaste.us/paste-pJzxeFWc
Contraseña:camix

Descargar Iron Man 3 + Extras (2013) | BDRip 720p | Dual Español Latino-Inglés | 5 GB | Pelicula Gratis


30-ago-2013
Juani944
Colaborador Destacado
Re: Iron Man 3 + Extras (2013) | BDRip 720p | Dual Español Latino-Inglés | 5 GB |
30-ago-2013
rafaelituz
Premier User
Re: Iron Man 3 + Extras (2013) | BDRip 720p | Dual Español Latino-Inglés | 5 GB |
gracias por el aporte
30-ago-2013
Miguel Lago
Premier User
Re: Iron Man 3 + Extras (2013) | BDRip 720p | Dual Español Latino-Inglés | 5 GB |
Gracias por tus aportes amig@.
30-ago-2013
fJAVIER MORALES
Premier User
Re: Iron Man 3 + Extras (2013) | BDRip 720p | Dual Español Latino-Inglés | 5 GB |
Excelente Camarada, Gracias
30-ago-2013
grecobono
Premier User
Re: Iron Man 3 + Extras (2013) | BDRip 720p | Dual Español Latino-Inglés | 5 GB |
Gracias Totales Argentina Warez
30-ago-2013
isseikun007
Premier User
Re: Iron Man 3 + Extras (2013) | BDRip 720p | Dual Español Latino-Inglés | 5 GB |
Excelente aporte bro,,,,,gracias por la peli
30-ago-2013
FERMETALLL
Baneado ;(
Re: Iron Man 3 + Extras (2013) | BDRip 720p | Dual Español Latino-Inglés | 5 GB |
31-ago-2013
luthar
Premier User
Re: Iron Man 3 + Extras (2013) | BDRip 720p | Dual Español Latino-Inglés | 5 GB |
Gracias por compartir!!

Necesitás estar Registrado para dejar comentarios en Iron Man 3 + Extras (2013) | BDRip 720p | Dual Español Latino-Inglés | 5 GB |

Información del Post

  • Puntos Puntos: 0 |
  • Visitas Visitas: 390 |
  • Autor Publicado por: camix2008 |
  • Categoría: Películas Gratis