El llanero solitario (2013) [TScreener][Castellano][Aventuras][Multi]


Descargar El llanero solitario (2013) [TScreener][Castellano][Aventuras][Multi] Película Gratis 1 link por Mega y Mediafire



Argentina Warez » Descargas Gratis » Películas Gratis El llanero solitario (2013) [TScreener][Castellano][Aventuras][Multi]
07-sep-2013
Master RIP
Black User
El llanero solitario (2013) [TScreener][Castellano][Aventuras][Multi]

El llanero solitario (2013) [TScreener][Castellano][Aventuras][Multi]





Adaptación de las aventuras del héroe del serial radiofónico del mismo título. Un grupo de Rangers de Texas sufre el ataque de una banda de forajidos. Un indio llamado Toro encuentra al único superviviente, el Llanero Solitario. Desde entonces, el héroe, su caballo Silver y su nuevo ayudante Toro, recorren el estado para vengarse de los forajidos y hacer triunfar la justicia.

Código:
Video
ID                                       : 0
Format                                   : MPEG-4 Visual
Format profile                           : Advanced Simple@L5
Format settings, BVOP                    : 2
Format settings, QPel                    : No
Format settings, GMC                     : No warppoints
Format settings, Matrix                  : Default (MPEG)
Muxing mode                              : Packed bitstream
Codec ID                                 : XVID
Codec ID/Hint                            : XviD
Duration                                 : 2h 20mn
Bit rate                                 : 1 675 Kbps
Width                                    : 720 pixels
Height                                   : 336 pixels
Display aspect ratio                     : 2.143
Frame rate                               : 24.000 fps
Color space                              : YUV
Chroma subsampling                       : 4:2:0
Bit depth                                : 8 bits
Scan type                                : Progressive
Compression mode                         : Lossy
Bits/(Pixel*Frame)                       : 0.289
Stream size                              : 1.64 GiB (91%)
Writing library                          : XviD 64

Audio
ID                                       : 1
Format                                   : MPEG Audio
Format version                           : Version 1
Format profile                           : Layer 3
Mode                                     : Joint stereo
Mode extension                           : MS Stereo
Codec ID                                 : 55
Codec ID/Hint                            : MP3
Duration                                 : 2h 20mn
Bit rate mode                            : Constant
Bit rate                                 : 160 Kbps
Channel(s)                               : 2 channels
Sampling rate                            : 48.0 KHz
Compression mode                         : Lossy
Stream size                              : 161 MiB (9%)
Alignment                                : Aligned on interleaves
Interleave, duration                     : 42 ms (1.00 video frame)
Interleave, preload duration             : 504 ms
Writing library                          : LAME3.99r
Encoding settings                        : -m j -V 4 -q 3 -lowpass 17.5 -b 160



image hosting



Comprimido con WinRAR

Megabitshare:
Código:
http://megabitshare.com/reduzlrgupd3/El_llanero_solitario_(2013)_Castellano_TScreener.part1.rar
http://megabitshare.com/2q7bdshglmaf/El_llanero_solitario_(2013)_Castellano_TScreener.part2.rar
Fileom:
Código:
http://fileom.com/h7ja59nbxruc/El_llanero_solitario_(2013)_Castellano_TScreener.part1.rar.html
http://fileom.com/5tkcv03quc4f/El_llanero_solitario_(2013)_Castellano_TScreener.part2.rar.html

Descargar El llanero solitario (2013) [TScreener][Castellano][Aventuras][Multi] Pelicula Gratis



Necesitás estar Registrado para dejar comentarios en El llanero solitario (2013) [TScreener][Castellano][Aventuras][Multi]

Información del Post

  • Puntos Puntos: 0 |
  • Visitas Visitas: 210 |
  • Autor Publicado por: Master RIP |
  • Categoría: Películas Gratis