Argentina Warez » Descargas Gratis » Películas Gratis La Maldición de Chucky (2013) | UNRATED | DVDRip | Español Latino | 699 MB |
27-sep-2013
camix2008
Premier User
La Maldición de Chucky (2013) | UNRATED | DVDRip | Español Latino | 699 MB |
La Maldición de Chucky (2013) | UNRATED | DVDRip | Español Latino | 699 MB |




TÍTULO ORIGINAL: Curse of Chucky
OTROS TÍTULOS: La Maldición de Chucky
AÑO: 2013
PAÍS: USA
DURACIÓN: 97 min.
DIRECTOR: Don Mancini
REPARTO: Brad Dourif, Danielle Bisutti, Fiona Dourif, Brennan Elliott, A Martinez, Chantal Quesnelle, Maitland McConnell, Kally Berard, Kyle Nobess, Will Woytowich, Kevin Anderson, Adam Hurtig
GUIÓN: Don Mancini
FOTOGRAFÍA: Michael Marshall
PRODUCTORA: Un1v3rs4l Home Entertainment / Un1v3rs4l P1ctur3s
GÉNERO: Terror. Secuela
FECHA DE ESTRENO CANADÁ: 2 de agosto de 2013
FECHA DE ESTRENO USA: 8 de octubre de 2013
FECHA DE ESTRENO MÉXICO: 31 de octubre de 2013
FECHA DE ESTRENO ESPAÑA: 13 de noviembre de 2013



Nica (Fiona Dourif) está destrozada tras el terrible suicidio de su madre. Su hermana mayor Barb (Danielle Bisutti) regresa a su casa para ayudarle en este duro trance, trayéndose con ella a su hija pequeña, quien posee un muñeco parlante llamado Chucky que llegó misteriosamente por correo. A medida que una serie de brutales asesinatos comienzan a aterrorizar a la familia, Nica sospecha que Chucky puede ser la clave del derramamiento de sangre, pero lo que sabe es que éste está decidido a terminar un trabajo que comenzó hace más de 20 años, y esta vez lo va a llevar acabo hasta el final…


Formato:AVI
Calidad:DVDRip | XviD |
Tamaño:699 MB
Audios:Español Latino
Subtítulos:Español
Servidor: letitbit
Uploader:Camix2012
Código:
General
Complete name                            : Curse.Of.Chucky.2013.UNRATED.DVDRip.LATiNO.XviD.avi
Format                                   : AVI
Format/Info                              : Audio Video Interleave
File size                                : 700 MiB
Duration                                 : 1h 36mn
Overall bit rate                         : 1 012 Kbps

Video
ID                                       : 0
Format                                   : MPEG-4 Visual
Format profile                           : Advanced Simple@L5
Format settings, BVOP                    : 2
Format settings, QPel                    : No
Format settings, GMC                     : No warppoints
Format settings, Matrix                  : Default (H.263)
Codec ID                                 : XVID
Codec ID/Hint                            : XviD
Duration                                 : 1h 36mn
Bit rate                                 : 878 Kbps
Width                                    : 640 pixels
Height                                   : 352 pixels
Display aspect ratio                     : 16:9
Frame rate                               : 23.976 fps
Color space                              : YUV
Chroma subsampling                       : 4:2:0
Bit depth                                : 8 bits
Scan type                                : Progressive
Compression mode                         : Lossy
Bits/(Pixel*Frame)                       : 0.163
Stream size                              : 607 MiB (87%)
Writing library                          : XviD 1.2.1 (UTC 2008-12-04)

Audio
ID                                       : 1
Format                                   : MPEG Audio
Format version                           : Version 1
Format profile                           : Layer 3
Mode                                     : Joint stereo
Codec ID                                 : 55
Codec ID/Hint                            : MP3
Duration                                 : 1h 36mn
Bit rate mode                            : Constant
Bit rate                                 : 128 Kbps
Channel(s)                               : 2 channels
Sampling rate                            : 48.0 KHz
Compression mode                         : Lossy
Stream size                              : 88.6 MiB (13%)
Alignment                                : Aligned on interleaves
Interleave, duration                     : 167 ms (4.00 video frames)
Interleave, preload duration             : 216 ms
Title                                    : Curse.Of.Chucky.2013.UNRATED.DVD.LATiNO 128kbps 
Writing library                          : LAME3.99r
Encoding settings                        : -m j -V 4 -q 2 -lowpass 17 -b 128
Language                                 : Español Latino











Links
http://goldpaste.us/paste-xKUp9Yn1
Contraseña:camix

Descargar La Maldición de Chucky (2013) | UNRATED | DVDRip | Español Latino | 699 MB | Pelicula Gratis


01-oct-2013
RIGODON13
Premier User
Re: La Maldición de Chucky (2013) | UNRATED | DVDRip | Español Latino | 699 MB |
Gracias por compartir
01-oct-2013
sied
Premier User
Re: La Maldición de Chucky (2013) | UNRATED | DVDRip | Español Latino | 699 MB |
Buen aporte y Gracias por compartir.......
01-oct-2013
dalfmaster
Premier User
Re: La Maldición de Chucky (2013) | UNRATED | DVDRip | Español Latino | 699 MB |
gracias por el aporte
01-oct-2013
Vast_
King User
Re: La Maldición de Chucky (2013) | UNRATED | DVDRip | Español Latino | 699 MB |
gracias por el aporte excelente
01-oct-2013
GratizD
Premier User
Re: La Maldición de Chucky (2013) | UNRATED | DVDRip | Español Latino | 699 MB |
01-oct-2013
Walt_8099
Supreme User
Re: La Maldición de Chucky (2013) | UNRATED | DVDRip | Español Latino | 699 MB |
thanks brother!
01-oct-2013
cosli
Premier User
Re: La Maldición de Chucky (2013) | UNRATED | DVDRip | Español Latino | 699 MB |
Gracias por tu aporte...
02-oct-2013
choymoy
Premier User
Re: La Maldición de Chucky (2013) | UNRATED | DVDRip | Español Latino | 699 MB |
muchas gracias
02-oct-2013
Slakers10
Final User
Re: La Maldición de Chucky (2013) | UNRATED | DVDRip | Español Latino | 699 MB |
Gracias.
02-oct-2013
Luigy57
Premier User
Re: La Maldición de Chucky (2013) | UNRATED | DVDRip | Español Latino | 699 MB |
Muchas gracias mi amigo.

Necesitás estar Registrado para dejar comentarios en La Maldición de Chucky (2013) | UNRATED | DVDRip | Español Latino | 699 MB |

Información del Post

  • Puntos Puntos: 5 |
  • Visitas Visitas: 435 |
  • Autor Publicado por: camix2008 |
  • Categoría: Películas Gratis