Argentina Warez » Descargas Gratis » Películas Gratis 2 Guns 2013 Webrip x264 AC3 UNiQUE
19-oct-2013
kapzor
Black User
2 Guns 2013 Webrip x264 AC3 UNiQUE
2 Guns 2013 Webrip x264 AC3 UNiQUE




A DEA agent and a naval intelligence officer find themselves on the run after a botched attempt to infiltrate a drug cartel. While fleeing, they learn the secret of their shaky alliance: Neither knew that the other was an undercover agent.

.NFO

Código:
General
Format                                   : Matroska
Format version                           : Version 2
File size                                : 1.40 GiB
Duration                                 : 1h 44mn
Overall bit rate mode                    : Variable
Overall bit rate                         : 1 920 Kbps
Encoded date                             : UTC 2013-10-19 07:11:00
Writing application                      : mkvmerge v6.4.1 ('Omega Point') built on Sep 16 2013 22:05:10
Writing library                          : libebml v1.3.0 + libmatroska v1.4.1

Video
ID                                       : 1
Format                                   : AVC
Format/Info                              : Advanced Video Codec
Format profile                           : High@L4.1
Format settings, CABAC                   : Yes
Format settings, ReFrames                : 3 frames
Codec ID                                 : V_MPEG4/ISO/AVC
Duration                                 : 1h 44mn
Bit rate mode                            : Variable
Bit rate                                 : 1 724 Kbps
Maximum bit rate                         : 40.0 Mbps
Width                                    : 720 pixels
Height                                   : 320 pixels
Display aspect ratio                     : 2.25:1
Frame rate                               : 60.000 fps
Color space                              : YUV
Chroma subsampling                       : 4:2:0
Bit depth                                : 8 bits
Scan type                                : Progressive
Bits/(Pixel*Frame)                       : 0.125
Stream size                              : 1.23 GiB (88%)
Writing library                          : x264 core 138 r2358 9e941d1
Default                                  : Yes
Forced                                   : No

Audio
ID                                       : 2
Format                                   : AC-3
Format/Info                              : Audio Coding 3
Mode extension                           : CM (complete main)
Format settings, Endianness              : Big
Codec ID                                 : A_AC3
Duration                                 : 1h 44mn
Bit rate mode                            : Constant
Bit rate                                 : 192 Kbps
Channel(s)                               : 2 channels
Channel positions                        : Front: L R
Sampling rate                            : 44.1 KHz
Bit depth                                : 16 bits
Compression mode                         : Lossy
Stream size                              : 143 MiB (10%)
Language                                 : English
Default                                  : Yes
Forced                                   : No


Código:
http://turbobit.net/q8apdfqudn9e/2.G.kapzor_19.10.13.part1.rar.html
http://turbobit.net/n0cieyvu7kx4/2.G.kapzor_19.10.13.part2.rar.html
Código:
http://bitshare.com/files/9pqfwwi3/2.G.kapzor_19.10.13.part1.rar.html
http://bitshare.com/files/9ia4ipqm/2.G.kapzor_19.10.13.part2.rar.html
Código:
http://rapidgator.net/file/8720d282b20e3beca9cef9f1865d21c5/2.G.kapzor_19.10.13.part1.rar.html
http://rapidgator.net/file/5a63a3d67d7e24a2c42f525e32469e19/2.G.kapzor_19.10.13.part2.rar.html

Descargar 2 Guns 2013 Webrip x264 AC3 UNiQUE Pelicula Gratis



Necesitás estar Registrado para dejar comentarios en 2 Guns 2013 Webrip x264 AC3 UNiQUE

Información del Post