Frozen 2013 DVDSCR X264 AAC COBRA


Descargar Frozen 2013 DVDSCR X264 AAC COBRA Película Gratis 1 link por Mega y Mediafire



Argentina Warez » Descargas Gratis » Películas Gratis Frozen 2013 DVDSCR X264 AAC COBRA
10-ene-2014
ferdonaldinio
Baneado ;(
Frozen 2013 DVDSCR X264 AAC COBRA
Frozen 2013 DVDSCR X264 AAC - COBRA File Size: 1,18GB INFORMATION
Código:
File size                        : 1.18 GiB Duration                         : 1h 40mn Overall bit rate                 : 1 678 Kbps  Video ID                               : 1 Format                           : AVC Format/Info                      : Advanced Video Codec Format profile                   : High@L3.0 Format settings, CABAC           : Yes Format settings, ReFrames        : 5 frames Codec ID                         : avc1 Codec ID/Info                    : Advanced Video Coding Duration                         : 1h 40mn Bit rate mode                    : Variable Bit rate                         : 1 318 Kbps Maximum bit rate                 : 9 796 Kbps Width                            : 704 pixels Height                           : 304 pixels Display aspect ratio             : 2.35:1 Frame rate mode                  : Constant Frame rate                       : 29.970 fps Color space                      : YUV Chroma subsampling               : 4:2:0 Bit depth                        : 8 bits Scan type                        : Progressive Bits/(Pixel*Frame)               : 0.205 Stream size                      : 950 MiB (79%) Writing library                  : x264 core 138 r2358 9e941d1   Audio ID                               : 2 Format                           : AAC Format/Info                      : Advanced Audio Codec Format profile                   : LC Codec ID                         : 40 Duration                         : 1h 40mn Bit rate mode                    : Variable Bit rate                         : 352.8 Kbps Maximum bit rate                 : 393 Kbps Channel(s)                       : 6 channels Channel positions                : Front: L C R, Side: L R, LFE Sampling rate                    : 44.1 KHz Compression mode                 : Lossy Stream size                      : 256 MiB (21%)    IMDBhttp://www.imdb.com/title/tt2294629/  source >>>>>>DVDScr XViD AC3 FiNGERBLaST..... Thanks
SCREENSHOTS DOWNLOAD WITH RAPIDGATOR
Código:
http://rapidgator.net/file/4df36160105aeb2920986a7b5f576f4e/Frozen.2013.DVDSCR.X264.AAC-COBRA.part1.rar.html http://rapidgator.net/file/726f3cf42b531c33350c8625990082fc/Frozen.2013.DVDSCR.X264.AAC-COBRA.part2.rar.html  Single file  http://rapidgator.net/file/6421c18f8b830fbebd2d2a1068c492fc/Frozen.2013.DVDSCR.X264.AAC-COBRA.mp4.html

Descargar Frozen 2013 DVDSCR X264 AAC COBRA Pelicula Gratis



Necesitás estar Registrado para dejar comentarios en Frozen 2013 DVDSCR X264 AAC COBRA

Información del Post

  • Puntos Puntos: 0 |
  • Visitas Visitas: 225 |
  • Autor Publicado por: ferdonaldinio |
  • Categoría: Películas Gratis