Argentina Warez » Descargas Gratis » Películas Gratis Los Juegos del Hambre: En Llamas [2013] [BdRip m1080p] [Castellano 5.1] [+Subs] [Mega-UL-FS-RG-LB]
14-mar-2014
seelej
Platinum User
Los Juegos del Hambre: En Llamas [2013] [BdRip m1080p] [Castellano 5.1] [+Subs] [Mega-UL-FS-RG-LB]


Los Juegos del Hambre: En Llamas (2013)

BDRip m1080p | x264 | MKV | DTS/AC3 | 5.62 GB | Audios: Castellano, Ingles | Ciencia Ficción, Acción | 2013



Título original: The Hunger Games: Catching Fire
Año: 2013
Duración: 146 min.
País: Estados Unidos
Director: Francis Lawrence
Guión: Michael Arndt, Simon Beaufoy (Novela: Suzanne Collins)
Música: James Newton Howard
Fotografía: Jo Willems
Reparto: Jennifer Lawrence, Josh Hutcherson, Liam Hemsworth, Philip Seymour Hoffman, Stanley Tucci, Woody Harrelson, Elizabeth Banks, Toby Jones, Donald Sutherland, Jeffrey Wright, Amanda Plummer, Lenny Kravitz, Jena Malone, Jack Quaid, Taylor St. Clair, Sam Claflin, Alan Ritchson, Paula Malcomson, Sandra Lafferty, Willow Shields, Nelson Ascencio
Productora: Lionsgate / Color Force
Género: Ciencia ficción. Aventuras | Thriller futurista. Supervivencia. Secuela


NFO:
Código:
General
Complete name                            : Los.Juegos.del.Hambre.en.LLamas.m1080p-by-seelej.mkv
Format                                   : Matroska
Format version                           : Version 4 / Version 2
File size                                : 5.62 GiB
Duration                                 : 2h 27mn
Overall bit rate                         : 5 442 Kbps
Movie name                               : Jueg.Hambre.Llamas.m1080p-by-seelej.mkv
Encoded date                             : UTC 2014-03-13 16:24:37
Writing application                      : Lavf55.30.100
Writing library                          : Lavf55.30.100

Video
ID                                       : 1
Format                                   : AVC
Format/Info                              : Advanced Video Codec
Format profile                           : High@L4.1
Format settings, CABAC                   : Yes
Format settings, ReFrames                : 4 frames
Codec ID                                 : V_MPEG4/ISO/AVC
Duration                                 : 2h 27mn
Bit rate                                 : 3 700 Kbps
Width                                    : 1 920 pixels
Height                                   : 1 080 pixels
Display aspect ratio                     : 16:9
Frame rate mode                          : Constant
Frame rate                               : 23.976 fps
Color space                              : YUV
Chroma subsampling                       : 4:2:0
Bit depth                                : 8 bits
Scan type                                : Progressive
Bits/(Pixel*Frame)                       : 0.074
Stream size                              : 3.67 GiB (65%)
Writing library                          : x264 core 140 r2377kMod 1ca7bb9
Encoding settings                        : cabac=1 / ref=5 / deblock=1:-1:-1 / analyse=0x3:0x133 / me=hex / subme=5 / psy=1 / fade_compensate=0.00 / psy_rd=1.00:0.00 / mixed_ref=1 / me_range=16 / chroma_me=1 / trellis=1 / 8x8dct=1 / cqm=0 / deadzone=21,11 / fast_pskip=1 / chroma_qp_offset=0 / threads=11 / lookahead_threads=2 / sliced_threads=0 / nr=0 / decimate=1 / interlaced=0 / bluray_compat=0 / constrained_intra=0 / fgo=0 / bframes=8 / b_pyramid=1 / b_adapt=1 / b_bias=0 / direct=3 / weightb=1 / open_gop=0 / weightp=2 / keyint=250 / keyint_min=25 / scenecut=40 / intra_refresh=0 / rc_lookahead=40 / rc=2pass / mbtree=1 / bitrate=3700 / ratetol=1.0 / qcomp=0.60 / qpmin=0 / qpmax=69 / qpstep=4 / cplxblur=20.0 / qblur=0.5 / ip_ratio=1.40 / aq=1:1.00
Default                                  : Yes
Forced                                   : No

Audio #1
ID                                       : 2
Format                                   : DTS
Format/Info                              : Digital Theater Systems
Mode                                     : 16
Format settings, Endianness              : Big
Codec ID                                 : A_DTS
Duration                                 : 2h 27mn
Bit rate mode                            : Constant
Bit rate                                 : 755 Kbps
Channel(s)                               : 6 channels
Channel positions                        : Front: L C R, Side: L R, LFE
Sampling rate                            : 48.0 KHz
Bit depth                                : 24 bits
Compression mode                         : Lossy
Stream size                              : 798 MiB (14%)
Language                                 : Spanish
Default                                  : No
Forced                                   : Yes

Audio #2
ID                                       : 3
Format                                   : AC-3
Format/Info                              : Audio Coding 3
Mode extension                           : CM (complete main)
Format settings, Endianness              : Big
Codec ID                                 : A_AC3
Duration                                 : 2h 27mn
Bit rate mode                            : Constant
Bit rate                                 : 640 Kbps
Channel(s)                               : 6 channels
Channel positions                        : Front: L C R, Side: L R, LFE
Sampling rate                            : 48.0 KHz
Bit depth                                : 16 bits
Compression mode                         : Lossy
Stream size                              : 677 MiB (12%)
Language                                 : Spanish
Default                                  : No
Forced                                   : No

Audio #3
ID                                       : 4
Format                                   : AC-3
Format/Info                              : Audio Coding 3
Mode extension                           : CM (complete main)
Format settings, Endianness              : Big
Codec ID                                 : A_AC3
Duration                                 : 2h 27mn
Bit rate mode                            : Constant
Bit rate                                 : 384 Kbps
Channel(s)                               : 6 channels
Channel positions                        : Front: L C R, Side: L R, LFE
Sampling rate                            : 48.0 KHz
Bit depth                                : 16 bits
Compression mode                         : Lossy
Stream size                              : 406 MiB (7%)
Language                                 : English
Default                                  : No
Forced                                   : No

Text #1
ID                                       : 5
Format                                   : ASS
Codec ID                                 : S_TEXT/ASS
Codec ID/Info                            : Advanced Sub Station Alpha
Compression mode                         : Lossless
Language                                 : Spanish
Default                                  : Yes
Forced                                   : No

Text #2
ID                                       : 6
Format                                   : ASS
Codec ID                                 : S_TEXT/ASS
Codec ID/Info                            : Advanced Sub Station Alpha
Compression mode                         : Lossless
Language                                 : Spanish
Default                                  : No
Forced                                   : No

Text #3
ID                                       : 7
Format                                   : ASS
Codec ID                                 : S_TEXT/ASS
Codec ID/Info                            : Advanced Sub Station Alpha
Compression mode                         : Lossless
Language                                 : English
Default                                  : No
Forced                                   : No

Text #4
ID                                       : 8
Format                                   : ASS
Codec ID                                 : S_TEXT/ASS
Codec ID/Info                            : Advanced Sub Station Alpha
Compression mode                         : Lossless
Language                                 : English
Default                                  : No
Forced                                   : No

Menu
00:00:00.000                             : :00:00:00.000
00:11:24.684                             : :00:11:24.684
00:16:48.049                             : :00:16:48.049
00:25:38.078                             : :00:25:38.078
00:35:51.649                             : :00:35:51.649
00:44:22.576                             : :00:44:22.576
00:52:12.921                             : :00:52:12.921
01:01:11.376                             : :01:01:11.376
01:08:12.213                             : :01:08:12.213
01:16:48.937                             : :01:16:48.937
01:22:39.663                             : :01:22:39.663
01:29:21.731                             : :01:29:21.731
01:40:43.913                             : :01:40:43.913
01:50:47.766                             : :01:50:47.766
02:02:46.984                             : :02:02:46.984
02:09:58.958                             : :02:09:58.958



Katniss Everdeen vuelve a casa sana y salva después de ganar los 74º Juegos del Hambre anuales. Participar significa dejar atrás familia y amigos y hacer el Tour de la Victoria por los diferentes distritos. A lo largo del camino, Katniss se da cuenta de que se está gestando una rebelión, pero en el Capitolio todo sigue bajo control: el Presidente Snow organiza los 75º Juegos del Hambre (El Vasallaje), una competición que cambiará Panem para siempre.




Código:
http://q.gs/5pYQf









Descargar Los Juegos del Hambre: En Llamas [2013] [BdRip m1080p] [Castellano 5.1] [+Subs] [Mega-UL-FS-RG-LB] Pelicula Gratis



Necesitás estar Registrado para dejar comentarios en Los Juegos del Hambre: En Llamas [2013] [BdRip m1080p] [Castellano 5.1] [+Subs] [Mega-UL-FS-RG-LB]

Información del Post