Descargar Contracted [2013] [DVDRip] Ingles, Subtitulos Español Latino


Descargar Descargar Contracted [2013] [DVDRip] Ingles, Subtitulos Español Latino Película Gratis 1 link por Mega y Mediafire



Argentina Warez » Descargas Gratis » Películas Gratis Descargar Contracted [2013] [DVDRip] Ingles, Subtitulos Español Latino
04-abr-2014
casesc
Platinum User
Descargar Contracted [2013] [DVDRip] Ingles, Subtitulos Español Latino
Después de una mala noche de alcohol y sexo con un desconocido, Samantha comienza a experimentar síntomas extraños. Su vagina empieza a sangrar, luego su ojo, su piel cae, sus dientes ennegrecen... Y su humor resulta más y más agrio. El médico carece de respuestas claras y su madre, su novia y sus amigos comienzan a preocuparse.
Título Original: Contracted
Año: 2013
Duración: 84 min.
País: USA
Director: Eric England
Guión: Eric England
Música: Kevin Riepl
Fotografía: Mike Testin
Reparto: Najarra Townsend, Caroline Williams, Alice Macdonald, Katie Stegeman, Matt Mercer, Charley Koontz
Productora: BoulderLight Pictures / Southern Fried Films
Género: Terror. Thriller | Enfermedad
General
Complete name : Contracted [2013] [DVDRip] Ingles, Subtitulos Español Latino.avi
Format : AVI
Format/Info : Audio Video Interleave
File size : 1.37 GiB
Duration : 1h 24mn
Overall bit rate : 2 325 Kbps
Writing application : VirtualDubMod 1.5.4.1 (build 2178/release)
Writing library : VirtualDubMod build 2178/release

Video
ID : 0
Format : MPEG-4 Visual
Format profile : Advanced Simple@L5
Format settings, BVOP : No
Format settings, QPel : No
Format settings, GMC : No warppoints
Format settings, Matrix : Custom
Codec ID : XVID
Codec ID/Hint : XviD
Duration : 1h 24mn
Bit rate : 1 870 Kbps
Width : 854 pixels
Height : 368 pixels
Display aspect ratio : 2.35:1
Frame rate : 23.976 fps
Color space : YUV
Chroma subsampling : 4:2:0
Bit depth : 8 bits
Scan type : Progressive
Compression mode : Lossy
Bits/(Pixel*Frame) : 0.248
Stream size : 1.10 GiB (80%)
Writing library : XviD 64

Audio
ID : 1
Format : AC-3
Format/Info : Audio Coding 3
Mode extension : CM (complete main)
Format settings, Endianness : Big
Codec ID : 2000
Duration : 1h 24mn
Bit rate mode : Constant
Bit rate : 448 Kbps
Channel count : 6 channels
Channel positions : Front: L C R, Side: L R, LFE
Sampling rate : 48.0 KHz
Bit depth : 16 bits
Compression mode : Lossy
Stream size : 270 MiB (19%)
Alignment : Split accross interleaves
Interleave, duration : 96 ms (2.30 video frames)
Interleave, preload duration : 96 ms
Language : English

Descargar Descargar Contracted [2013] [DVDRip] Ingles, Subtitulos Español Latino Pelicula Gratis



Necesitás estar Registrado para dejar comentarios en Descargar Contracted [2013] [DVDRip] Ingles, Subtitulos Español Latino

Información del Post