[Multi] Daybreakers (2009)


Descargar [Multi] Daybreakers (2009) Película Gratis 1 link por Mega y Mediafire



Argentina Warez » Descargas Gratis » Películas Gratis [Multi] Daybreakers (2009)
24-feb-2010
Agrestol
Baneado ;(
[Multi] Daybreakers (2009)


General
Complete name : Daybreakers.2009.720p.BRRip.XviD.LiNE-Voltage.avi
Format : AVI
Format/Info : Audio Video Interleave
Format profile : OpenDML
File size : 2.19 GiB
Duration : 1h 37mn
Overall bit rate : 3 209 Kbps
Writing application : VirtualDubMod 1.5.10.2 (build 2542/release)
Writing library : VirtualDubMod build 2542/release

Video
Format : MPEG-4 Visual
Format profile : AdvancedSimple@L5
Format settings, BVOP : Yes
Format settings, QPel : No
Format settings, GMC : No warppoints
Format settings, Matrix : Default (H.263)
Muxing mode : Packed bitstream
Codec ID : XVID
Codec ID/Hint : XviD
Duration : 1h 37mn
Bit rate : 3 070 Kbps
Width : 1 280 pixels
Height : 544 pixels
Display aspect ratio : 2.35:1
Frame rate : 23.976 fps
Resolution : 24 bits
Colorimetry : 4:2:0
Scan type : Progressive
Bits/(Pixel*Frame) : 0.184
Stream size : 2.10 GiB (96%)
Writing library : XviD 1.2.1 (UTC 2008-12-04)



-----------------------------------------------------------------------------------------------------------

Audio
-----------------------------------------------------------------------------------------------------------

Audio
ormat : MPEG Audio
Format version : Version 1
Format profile : Layer 3
Codec ID : 55
Codec ID/Hint : MP3
Duration : 1h 37mn
Bit rate mode : Constant
Bit rate : 128 Kbps
Channel(s) : 2 channels
Sampling rate : 48.0 KHz
Resolution : 16 bits
Stream size : 89.5 MiB (4%)
Alignment : Aligned on interleaves
Interleave, duration : 42 ms (1.00 video frame)
Interleave, preload duration : 504 ms






Código:
http://turbobit.net/dsq7vgrpugst.html

Or

http://www.extabit.com/file/28xh9uubhvlxy

Descargar [Multi] Daybreakers (2009) Pelicula Gratis



Necesitás estar Registrado para dejar comentarios en [Multi] Daybreakers (2009)

Información del Post