Pretty Woman 1990 Blu-ray 1080p AC3 DD5.1


Descargar Pretty Woman 1990 Blu-ray 1080p AC3 DD5.1 Película Gratis 1 link por Mega y Mediafire



Argentina Warez » Descargas Gratis » Películas Gratis Pretty Woman 1990 Blu-ray 1080p AC3 DD5.1
25-feb-2010
wilhschi
Baneado ;(
Pretty Woman 1990 Blu-ray 1080p AC3 DD5.1


Código:
Pretty Woman
 	Genre : Comedy, Romance
Rating : 6.7/10 (57,516 votes)
Language : English
Country : USA
Director : Garry Marshall
Link : http://www.imdb.com/title/tt0100405/

Plot OutLine : 
A man in a legal but hurtful business needs an escort for some social events, and hires a beautiful prostitute he meets... only to fall in love.


Cast : 
Richard Gere ... Edward Lewis 
Julia Roberts ... Vivian Ward 
Ralph Bellamy ... James Morse 
Jason Alexander ... Philip Stuckey 
Laura San Giacomo ... Kit De Luca
Código:
NFO: 
Pretty Woman 1990 Blu-ray 1080p AC3 DD5.1

General
Complete name                    : E:UTorrent DldsPretty Woman 1990 Blu-ray 1080p AC3 DD5.1Pretty Woman 1990 Blu-ray 1080p AC3 DD5.1.mkv
Format                           : Matroska
File size                        : 8.59 GiB
Duration                         : 1h 59mn
Overall bit rate                 : 10.3 Mbps
Movie name                       : Pretty Woman (1990) - Release for HDclub
Encoded date                     : UTC 2010-02-23 19:01:41
Writing application              : mkvmerge v3.1.0 ('Happy up here') built on Jan 19 2010 12:09:24
Writing library                  : libebml v0.7.9   libmatroska v0.8.1

Video
ID                               : 1
Format                           : AVC
Format/Info                      : Advanced Video Codec
Format profile                   : High@L4.1
Format settings, CABAC           : Yes
Format settings, ReFrames        : 3 frames
Muxing mode                      : Container profile=Unknown@4.1
Codec ID                         : V_MPEG4/ISO/AVC
Duration                         : 1h 59mn
Bit rate                         : 9 437 Kbps
Nominal bit rate                 : 9 641 Kbps
Width                            : 1 920 pixels
Height                           : 1 040 pixels
Display aspect ratio             : 16:9
Frame rate                       : 23.976 fps
Resolution                       : 24 bits
Colorimetry                      : 4:2:0
Scan type                        : Progressive
Bits/(Pixel*Frame)               : 0.197
Stream size                      : 7.88 GiB (92%)
Title                            : Release for HDclub
Writing library                  : x264 core 65 r1077M e46f648
Encoding settings                : cabac=1 / ref=3 / deblock=1:0:0 / analyse=0x3:0x113 / me=umh / subme=7 / psy_rd=1.0:0.0 / mixed_ref=1 / me_range=16 / chroma_me=1 / trellis=2 / 8x8dct=1 / cqm=2 / deadzone=21,11 / chroma_qp_offset=-2 / threads=6 / nr=0 / decimate=0 / mbaff=0 / bframes=3 / b_pyramid=1 / b_adapt=2 / b_bias=0 / direct=3 / wpredb=1 / keyint=250 / keyint_min=25 / scenecut=40(pre) / rc=2pass / bitrate=9641 / ratetol=1.0 / qcomp=0.60 / qpmin=10 / qpmax=51 / qpstep=4 / cplxblur=20.0 / qblur=0.5 / vbv_maxrate=50000 / vbv_bufsize=50000 / ip_ratio=1.40 / pb_ratio=1.30 / aq=1:1.00
Language                         : English

Audio
ID                               : 2
Format                           : AC-3
Format/Info                      : Audio Coding 3
Codec ID                         : A_AC3
Duration                         : 1h 59mn
Bit rate mode                    : Constant
Bit rate                         : 640 Kbps
Channel(s)                       : 6 channels
Channel positions                : Front: L C R, Surround: L R, LFE
Sampling rate                    : 48.0 KHz
Stream size                      : 548 MiB (6%)
Title                            : DD5.1 640 Kbps #7
Language                         : English

Text
ID                               : 3
Format                           : UTF-8
Codec ID                         : S_TEXT/UTF8
Codec ID/Info                    : UTF-8 Plain Text
Language                         : English
Rapidshare:
Código:
http://rapidshare.com/files/355696799/P.W.1990.Blu-ray.1080._AC3.DD5.1.part01.rar
http://rapidshare.com/files/355697529/P.W.1990.Blu-ray.1080._AC3.DD5.1.part02.rar
http://rapidshare.com/files/355698498/P.W.1990.Blu-ray.1080._AC3.DD5.1.part03.rar
http://rapidshare.com/files/355699398/P.W.1990.Blu-ray.1080._AC3.DD5.1.part04.rar
http://rapidshare.com/files/355700428/P.W.1990.Blu-ray.1080._AC3.DD5.1.part05.rar
http://rapidshare.com/files/355701375/P.W.1990.Blu-ray.1080._AC3.DD5.1.part06.rar
http://rapidshare.com/files/355702334/P.W.1990.Blu-ray.1080._AC3.DD5.1.part07.rar
http://rapidshare.com/files/355703176/P.W.1990.Blu-ray.1080._AC3.DD5.1.part08.rar
http://rapidshare.com/files/355704084/P.W.1990.Blu-ray.1080._AC3.DD5.1.part09.rar
http://rapidshare.com/files/355704896/P.W.1990.Blu-ray.1080._AC3.DD5.1.part10.rar
http://rapidshare.com/files/355705837/P.W.1990.Blu-ray.1080._AC3.DD5.1.part11.rar
http://rapidshare.com/files/355706897/P.W.1990.Blu-ray.1080._AC3.DD5.1.part12.rar
http://rapidshare.com/files/355707853/P.W.1990.Blu-ray.1080._AC3.DD5.1.part13.rar
http://rapidshare.com/files/355708843/P.W.1990.Blu-ray.1080._AC3.DD5.1.part14.rar
http://rapidshare.com/files/355709790/P.W.1990.Blu-ray.1080._AC3.DD5.1.part15.rar
http://rapidshare.com/files/355710735/P.W.1990.Blu-ray.1080._AC3.DD5.1.part16.rar
http://rapidshare.com/files/355711842/P.W.1990.Blu-ray.1080._AC3.DD5.1.part17.rar
http://rapidshare.com/files/355712786/P.W.1990.Blu-ray.1080._AC3.DD5.1.part18.rar
http://rapidshare.com/files/355713788/P.W.1990.Blu-ray.1080._AC3.DD5.1.part19.rar
http://rapidshare.com/files/355714767/P.W.1990.Blu-ray.1080._AC3.DD5.1.part20.rar
http://rapidshare.com/files/355715783/P.W.1990.Blu-ray.1080._AC3.DD5.1.part21.rar
http://rapidshare.com/files/355716673/P.W.1990.Blu-ray.1080._AC3.DD5.1.part22.rar
http://rapidshare.com/files/355717650/P.W.1990.Blu-ray.1080._AC3.DD5.1.part23.rar
http://rapidshare.com/files/355718774/P.W.1990.Blu-ray.1080._AC3.DD5.1.part24.rar
http://rapidshare.com/files/355719791/P.W.1990.Blu-ray.1080._AC3.DD5.1.part25.rar
http://rapidshare.com/files/355720861/P.W.1990.Blu-ray.1080._AC3.DD5.1.part26.rar
http://rapidshare.com/files/355721769/P.W.1990.Blu-ray.1080._AC3.DD5.1.part27.rar
http://rapidshare.com/files/355722798/P.W.1990.Blu-ray.1080._AC3.DD5.1.part28.rar
http://rapidshare.com/files/355723833/P.W.1990.Blu-ray.1080._AC3.DD5.1.part29.rar
http://rapidshare.com/files/355724910/P.W.1990.Blu-ray.1080._AC3.DD5.1.part30.rar
http://rapidshare.com/files/355725920/P.W.1990.Blu-ray.1080._AC3.DD5.1.part31.rar
http://rapidshare.com/files/355726837/P.W.1990.Blu-ray.1080._AC3.DD5.1.part32.rar
http://rapidshare.com/files/355727733/P.W.1990.Blu-ray.1080._AC3.DD5.1.part33.rar
http://rapidshare.com/files/355728451/P.W.1990.Blu-ray.1080._AC3.DD5.1.part34.rar
http://rapidshare.com/files/355729287/P.W.1990.Blu-ray.1080._AC3.DD5.1.part35.rar
http://rapidshare.com/files/355730242/P.W.1990.Blu-ray.1080._AC3.DD5.1.part36.rar
http://rapidshare.com/files/355731212/P.W.1990.Blu-ray.1080._AC3.DD5.1.part37.rar
http://rapidshare.com/files/355732200/P.W.1990.Blu-ray.1080._AC3.DD5.1.part38.rar
http://rapidshare.com/files/355733061/P.W.1990.Blu-ray.1080._AC3.DD5.1.part39.rar
http://rapidshare.com/files/355733927/P.W.1990.Blu-ray.1080._AC3.DD5.1.part40.rar
http://rapidshare.com/files/355734770/P.W.1990.Blu-ray.1080._AC3.DD5.1.part41.rar
http://rapidshare.com/files/355736794/P.W.1990.Blu-ray.1080._AC3.DD5.1.part42.rar
http://rapidshare.com/files/355737607/P.W.1990.Blu-ray.1080._AC3.DD5.1.part43.rar
http://rapidshare.com/files/355738482/P.W.1990.Blu-ray.1080._AC3.DD5.1.part44.rar
http://rapidshare.com/files/355738601/P.W.1990.Blu-ray.1080._AC3.DD5.1.part45.rar
No pass

Single extraction

Descargar Pretty Woman 1990 Blu-ray 1080p AC3 DD5.1 Pelicula Gratis


08-ene-2012
esgon
New User
Re: Pretty Woman 1990 Blu-ray 1080p AC3 DD5.1
muy buen aporte descargando

Necesitás estar Registrado para dejar comentarios en Pretty Woman 1990 Blu-ray 1080p AC3 DD5.1

Información del Post

  • Puntos Puntos: 0 |
  • Visitas Visitas: 1703 |
  • Autor Publicado por: wilhschi |
  • Categoría: Películas Gratis