Mortal Kombat 2: Annihilation (1997) 720p Dual Audio


Descargar Mortal Kombat 2: Annihilation (1997) 720p Dual Audio Película Gratis 1 link por Mega y Mediafire



Argentina Warez » Descargas Gratis » Películas Gratis Mortal Kombat 2: Annihilation (1997) 720p Dual Audio
31-mar-2010
wilhschi
Baneado ;(
Mortal Kombat 2: Annihilation (1997) 720p Dual Audio


Código:
Mortal Kombat: Annihilation
 
Genre : Action, Adventure, Fantasy, Sci-Fi, Thriller
Rating :  3.1/10 (15,917 votes)
Language : English
Country : USA
Director : John R. Leonetti
Link : http://www.imdb.com/title/tt0119707/

Plot OutLine : 
A group of martial arts warriors have only six days to save the Earth from an extra-dimensional invasion.

Cast : 
Robin Shou ... Liu Kang 
James Remar ... Lord Rayden 
Talisa Soto ... Princess Kitana 
Sandra Hess ... Sonya Blade 
Brian Thompson ... Shao Kahn
Código:
NFO: 
Mortal Kombat 2: Annihilation (1997) 720p Dual Audio


Format                           : Matroska
File size                        : 4.66 GiB
Duration                         : 1h 35mn
Overall bit rate                 : 6 968 Kbps
Movie name                       : -=kinozal.tv-HD=-
Encoded date                     : UTC 2010-03-29 10:11:14
Writing application              : mkvmerge v3.1.0 ('Happy up here') built on Jan 19 2010 12:09:24
Writing library                  : libebml v0.7.9   libmatroska v0.8.1

Video
ID                               : 1
Format                           : AVC
Format/Info                      : Advanced Video Codec
Format profile                   : High@L4.1
Format settings, CABAC           : Yes
Format settings, ReFrames        : 7 frames
Muxing mode                      : Container profile=Unknown@4.1
Codec ID                         : V_MPEG4/ISO/AVC
Duration                         : 1h 35mn
Bit rate                         : 4 871 Kbps
Nominal bit rate                 : 5 082 Kbps
Width                            : 1 280 pixels
Height                           : 688 pixels
Display aspect ratio             : 1.860
Frame rate                       : 23.976 fps
Resolution                       : 8 bits
Colorimetry                      : 4:2:0
Scan type                        : Progressive
Bits/(Pixel*Frame)               : 0.231
Stream size                      : 3.25 GiB (70%)
Writing library                  : x264 core 88 r1471 1144615
Encoding settings                : cabac=1 / ref=7 / deblock=1:0:0 / analyse=0x3:0x113 / me=umh / subme=9 / psy=1 / psy_rd=1.00:0.00 / mixed_ref=1 / me_range=16 / chroma_me=1 / trellis=1 / 8x8dct=1 / cqm=0 / deadzone=21,11 / fast_pskip=0 / chroma_qp_offset=-2 / threads=28 / sliced_threads=0 / nr=0 / decimate=1 / mbaff=0 / constrained_intra=0 / bframes=3 / b_pyramid=2 / b_adapt=1 / b_bias=0 / direct=1 / wpredb=1 / wpredp=2 / keyint=250 / keyint_min=25 / scenecut=40 / intra_refresh=0 / rc_lookahead=40 / rc=2pass / mbtree=1 / bitrate=5082 / ratetol=1.0 / qcomp=0.60 / qpmin=10 / qpmax=51 / qpstep=4 / cplxblur=20.0 / qblur=0.5 / ip_ratio=1.40 / aq=1:1.00
Language                         : English

Audio #1
ID                               : 2
Format                           : AC-3
Format/Info                      : Audio Coding 3
Codec ID                         : A_AC3
Duration                         : 1h 35mn
Bit rate mode                    : Constant
Bit rate                         : 448 Kbps
Channel(s)                       : 6 channels
Channel positions                : Front: L C R, Side: L R, LFE
Sampling rate                    : 48.0 KHz
Video delay                      : 16ms
Stream size                      : 307 MiB (6%)
Title                            : MVO
Language                         : Russian

Audio #2
ID                               : 3
Format                           : DTS
Format/Info                      : Digital Theater Systems
Codec ID                         : A_DTS
Duration                         : 1h 35mn
Bit rate mode                    : Constant
Bit rate                         : 1 510 Kbps
Channel(s)                       : 6 channels
Channel positions                : Front: L C R, Side: L R, LFE
Sampling rate                    : 48.0 KHz
Resolution                       : 24 bits
Stream size                      : 1.01 GiB (22%)
Language                         : English

Text
ID                               : 4
Format                           : UTF-8
Codec ID                         : S_TEXT/UTF8
Codec ID/Info                    : UTF-8 Plain Text
Language                         : Russian
Rapidshare:
Código:
http://rapidshare.com/files/370019813/M.K-2.1997.x264.BDRip.HD.part01.rar
http://rapidshare.com/files/370020620/M.K-2.1997.x264.BDRip.HD.part02.rar
http://rapidshare.com/files/370021321/M.K-2.1997.x264.BDRip.HD.part03.rar
http://rapidshare.com/files/370022130/M.K-2.1997.x264.BDRip.HD.part04.rar
http://rapidshare.com/files/370022914/M.K-2.1997.x264.BDRip.HD.part05.rar
http://rapidshare.com/files/370023891/M.K-2.1997.x264.BDRip.HD.part06.rar
http://rapidshare.com/files/370024770/M.K-2.1997.x264.BDRip.HD.part07.rar
http://rapidshare.com/files/370025554/M.K-2.1997.x264.BDRip.HD.part08.rar
http://rapidshare.com/files/370026423/M.K-2.1997.x264.BDRip.HD.part09.rar
http://rapidshare.com/files/370027275/M.K-2.1997.x264.BDRip.HD.part10.rar
http://rapidshare.com/files/370028101/M.K-2.1997.x264.BDRip.HD.part11.rar
http://rapidshare.com/files/370028791/M.K-2.1997.x264.BDRip.HD.part12.rar
http://rapidshare.com/files/370029857/M.K-2.1997.x264.BDRip.HD.part13.rar
http://rapidshare.com/files/370030683/M.K-2.1997.x264.BDRip.HD.part14.rar
http://rapidshare.com/files/370031468/M.K-2.1997.x264.BDRip.HD.part15.rar
http://rapidshare.com/files/370032294/M.K-2.1997.x264.BDRip.HD.part16.rar
http://rapidshare.com/files/370033125/M.K-2.1997.x264.BDRip.HD.part17.rar
http://rapidshare.com/files/370033946/M.K-2.1997.x264.BDRip.HD.part18.rar
http://rapidshare.com/files/370034699/M.K-2.1997.x264.BDRip.HD.part19.rar
http://rapidshare.com/files/370035736/M.K-2.1997.x264.BDRip.HD.part20.rar
http://rapidshare.com/files/370036624/M.K-2.1997.x264.BDRip.HD.part21.rar
http://rapidshare.com/files/370037401/M.K-2.1997.x264.BDRip.HD.part22.rar
http://rapidshare.com/files/370038136/M.K-2.1997.x264.BDRip.HD.part23.rar
http://rapidshare.com/files/370038894/M.K-2.1997.x264.BDRip.HD.part24.rar
No pass

Single extraction

Descargar Mortal Kombat 2: Annihilation (1997) 720p Dual Audio Pelicula Gratis



Necesitás estar Registrado para dejar comentarios en Mortal Kombat 2: Annihilation (1997) 720p Dual Audio

Información del Post

  • Puntos Puntos: 0 |
  • Visitas Visitas: 1848 |
  • Autor Publicado por: wilhschi |
  • Categoría: Películas Gratis