Argentina Warez » Descargas Gratis » Series de TV Gratis Mi Bella Genio - I Dream of Jeannie - Temporada 3 Latino
02-nov-2010
foxmulder2006
New User
Mi Bella Genio - I Dream of Jeannie - Temporada 3 Latino




MI BELLA GENIO TEMPORADA 3

INFORMACIÓN GENERAL
Nombre Original: I Dream of Jeannie
Género: Comedia
Año: 1966
Episodios: 26


INFORMACIÓN TECNICA
Calidad: DVDRip
Idioma: Español Latino (NO INGLES)
Resolución: 640x480
Tamaño: 310MB x cap.
Duracion: 23 - 25 min. cap.
Format : AVI
Format/Info : Audio Video Interleave
Overal bit rate : 1725 Kbps
Writing application : Lavf52.34.0

Video
Format : MPEG-4 Visual
Format profile : Simple@L3
Codec ID : DIVX
Codec ID/Hint : DivX 4
Bit rate : 1584 Kbps
Width : 640 pixels
Height : 480 pixels
Display aspect ratio : 4/3
Frame rate : 29.970 fps
Resolution : 8 bits
Scan type : Progressive
Bits/(Pixel*Frame) : 0.172
Stream size : 286 MiB
Writing library : XviD 1.2.0.dev47 (UTC 2006-11-01)

Audio
Format : MPEG Audio
Format version : Version 1
Format profile : Layer 3
Codec ID : 55
Codec ID/Hint : MP3
Duration : 25mn 16s
Bit rate mode : Constant
Bit rate : 128 Kbps
Channel(s) : 2 channels
Sampling rate : 48.0 KHz
Resolution : 16 bits
Stream size : 23.1 MiB
Writing library : LAME3.99 (alpha)
SIPNOSIS
Desde la base espacial de Cabo Kennedy en Florida (hoy Cabo Cañaveral), Anthony Nelson es enviado a la Luna pero durante el recorrido cae en una isla desierta despues de que la misión en la que participaba es abortada. Durante su estancia en la isla Tony encuentra una botella semienterrada. Al abrirla aparece una genio, ¡pero qué genio! Es una joven rubia, de ojos verdes brillantes y una figura espectacular, y el capitán Nelson la nombra como Jeannie (diminutivo de genio). Ella rescata a Nelson enviándole un helicóptero con sus poderes mágicos. El capitán le da a Jeannie (la genio) la libertad pero ella quería divertirse y vio muy divertido al Capitán Nelson, así que se va con él sin que éste lo sospechara.
Al regresar a su casa en Cocoa Beach, (Florida) y después de que el psicólogo de la NASA, el Dr. Bellows, lo considerara un loco, se da cuenta de que nadie va a creerle que haya encontrado una genio en una botella. De ahí en adelante el Dr. Bellows estudia los comportamientos de Tony, y se los reporta al general Petterson, pero al final de cada episodio siempre pasa algo que produce que Bellows no tenga las pruebas y quede en ridículo ante Petterson.
CAPTURAS










[/CENTER]

Descargar Mi Bella Genio - I Dream of Jeannie - Temporada 3 Latino Gratis


05-jul-2011
DiosDeCristal
White User
Re: Mi Bella Genio - I Dream of Jeannie - Temporada 3 Latino
Exelente amigo, no sabes como te lo agradesco sinceramente andaba buscando esta serie gracias!!!!!!!!!!!!!!!!!!!!!!!!!!
29-jul-2012
anderxx01
New User
Re: Mi Bella Genio - I Dream of Jeannie - Temporada 3 Latino
como lo descacrgo
29-jul-2012
Rainier74
Premier User
Re: Mi Bella Genio - I Dream of Jeannie - Temporada 3 Latino
Iniciado por anderxx01
como lo descacrgo
buena pregunta la del amigo aca xq no tiene el link ni nada por ningun lado creo que se teolvido
05-ago-2012
juancarlozzz
New User
Re: Mi Bella Genio - I Dream of Jeannie - Temporada 3 Latino
buena serie ,lo esraba buscando,... gracias
05-ago-2012
mmanuelito
Black User
Re: Mi Bella Genio - I Dream of Jeannie - Temporada 3 Latino
Buena serie pero se te olvido como bajarlo Gracias
06-ago-2012
ahidalgox
New User
Re: Mi Bella Genio - I Dream of Jeannie - Temporada 3 Latino
El enlace de bajada (download) no aparece por ninguna parte. Gracias
06-ago-2012
veronic178
New User
Re: Mi Bella Genio - I Dream of Jeannie - Temporada 3 Latino
no hay enlaces ayudaaa please
31-ago-2012
karlo36
New User
Re: Mi Bella Genio - I Dream of Jeannie - Temporada 3 Latino
muchisimas gracias men }
21-oct-2012
rolandocalles
New User
Re: Mi Bella Genio - I Dream of Jeannie - Temporada 3 Latino
gracias por el aporte
29-oct-2012
mmanuelito
Black User
Re: Mi Bella Genio - I Dream of Jeannie - Temporada 3 Latino
excelente aporte pero como lo bajo gracias
17-ene-2013
davincer
White User
Re: Mi Bella Genio - I Dream of Jeannie - Temporada 3 Latino
y los links pa descargar?
26-nov-2013
jotacejota
White User
Re: Mi Bella Genio - I Dream of Jeannie - Temporada 3 Latino
Deberíais anular este post. Si no hay enlaces ¿para que sigue estando vivo??????

Necesitás estar Registrado para dejar comentarios en Mi Bella Genio - I Dream of Jeannie - Temporada 3 Latino

Información del Post