★ Los Soprano | T. 1 (HD) [HDRip] [ESP] [1500Mb] (13/13) [FS/ US/ WU]


Descargar ★ Los Soprano | T. 1 (HD) [HDRip] [ESP] [1500Mb] (13/13) [FS/ US/ WU] Gratis 1 link por Mega y Mediafire



Argentina Warez » Descargas Gratis » Series de TV Gratis ★ Los Soprano | T. 1 (HD) [HDRip] [ESP] [1500Mb] (13/13) [FS/ US/ WU]
31-jul-2011
Nukety
Premium User
Los Soprano T.1 [HDRip 720p] [DUAL] [1.5GB] [13/13] | FS US FJ UL FSO |
Los Soprano | Temporada 1 | Capitulos [05/13]



· · · · · · · · · · · · · · · : : | Ficha Técnica | : : · · · · · · · · · · · · · · ·

Título: Los Soprano
Título Original: The Sopranos
Año: 1999
País: USA
Duración: 50 min.
Género: Thriller | Drama
Creador: David Chase
Productora: HBO


· · · · · · · · · · · · · · · : : | Reparto | : : · · · · · · · · · · · · · · ·

✭ James Gandolfini | ✭ Edie Falco | ✭ Lorraine Bracco | ✭ Michael Imperioli | ✭ Tony Sirico | ✭ Dominic Chianese | ✭ Jamie-Lynn Sigler | ✭ Steve Van Zandt | ✭ Robert Iler | ✭ Aida Turturro


· · · · · · · · · · · · · · · : : | Sinopsis | : : · · · · · · · · · · · · · · ·

Sinopsis: Los Soprano es una serie que cuenta las vivencias de una familia de la mafia italiana instalada en New Jersey. Su protagonista, Tony Soprano, intenta ser un buen hombre de familia en todos los sentidos, tanto con su mujer, hijos y enviudada madre, como ejerciendo de capo de la mafia en Nueva Jersey. Las presiones del trabajo y la vida familiar le causan una serie de ataques de ansiedad que le obligan a recibir terapia psiquiátrica, algo que ha de guardarse para sí mismo ya que no es la clase de información que alguien que se mueve en su “círculo” deba compartir.
La familia Soprano no es un modelo idílico. El matrimonio del protagonista con Carmela (Edie Falco) no funciona bien debido a la profesión de Tony y su madre, Livia Soprano (Nancy Marchand), la viuda del antiguo jefe de la familia Soprano, es una anciana que le irrita en numerosas ocasiones.
Además, los problemas que conlleva criar a dos hijos adolescentes, un hijo indisciplinado, Anthony Soprano Jr. (Robert Iler), y Meadow Soprano (Jamie-Lynn Sigler), una universitaria con la que prácticamente no habla, se suman al estrés que le provoca la responsabilidad de enfrentarse cada día a nuevas situaciones de trabajo con sus socios Silvio Dante (Steve Van Zandt) y Paulie Walnuts (Tony Sirico), su sobrino Christopher Moltisanti (Michael Imperioli) y su tío Corrado “Junior” Soprano (Dominic Chianese), hermano de su difunto padre y con el que no mantiene muy buena relación.
La presión que le provoca intentar compaginar estas dos vidas y los ataques de ansiedad que sufre, llevan a Tony a la terapia de la doctora Jennifer Melfi (Lorraine Bracco), una psiquiatra con experiencia que ayudará al protagonista a resolver sus dudas existenciales.

WebSite http://www.hbo.com/sopranos/
FilmAffinity http://es.wikipedia.org/wiki/Los_Soprano
IMDB http://www.imdb.es/title/tt0141842/
YouTube http://www.youtube.com/v/QNrzz_acqWI


Temporada: 1
Nº de Capitulos: 13
Rip: HDRip
Formato: 720p
Contenedor: MKV
Audio: Castellano e Inglés
Tamaño: 1.5GB
MediaInfo: ↓
Spoiler
Format : Matroska
File size : 1.49 GiB
Duration : 47mn 32s
Overall bit rate : 4 500 Kbps
Encoded date : UTC 2009-04-20 14:47:39
Writing application : mkvmerge v2.4.0 ('Fumbling Towards Ecstasy') built on Oct 11 2008 20:13:15
Writing library : libebml v0.7.7 + libmatroska v0.8.1

Video
ID : 1
Format : AVC
Format/Info : Advanced Video Codec
Format profile : High@L5.1
Format settings, CABAC : Yes
Format settings, ReFrames : 9 frames
Codec ID : V_MPEG4/ISO/AVC
Duration : 47mn 32s
Bit rate : 3 764 Kbps
Width : 1 280 pixels
Height : 720 pixels
Display aspect ratio : 16:9
Frame rate : 25.000 fps
Original frame rate : 23.976 fps
Color space : YUV
Chroma subsampling : 4:2:0
Bit depth : 8 bits
Scan type : Progressive
Bits/(Pixel*Frame) : 0.163
Stream size : 1.27 GiB (85%)
Writing library : x264 core 54 svn-601
Encoding settings : cabac=1 / ref=6 / deblock=1:-1:0 / analyse=0x3:0x133 / me=hex / subme=7 / brdo=1 / mixed_ref=1 / me_range=16 / chroma_me=1 / trellis=1 / 8x8dct=1 / cqm=0 / deadzone=21,11 / chroma_qp_offset=0 / slices=2 / nr=0 / decimate=1 / mbaff=0 / bframes=3 / b_pyramid=1 / b_adapt=1 / b_bias=0 / direct=1 / wpredb=1 / bime=1 / keyint=250 / keyint_min=25 / scenecut=40 / rc=2pass / bitrate=3764 / ratetol=1.0 / rceq='blurCplx^(1-qComp)' / qcomp=0.60 / qpmin=10 / qpmax=51 / qpstep=4 / cplxblur=20.0 / qblur=0.5 / ip_ratio=1.40 / pb_ratio=1.30
Language : Spanish

Audio #1
ID : 2
Format : AC-3
Format/Info : Audio Coding 3
Mode extension : CM (complete main)
Codec ID : A_AC3
Duration : 47mn 32s
Bit rate mode : Constant
Bit rate : 192 Kbps
Channel(s) : 2 channels
Channel positions : Front: L R
Sampling rate : 48.0 KHz
Bit depth : 16 bits
Compression mode : Lossy
Stream size : 65.3 MiB (4%)
Language : Spanish

Audio #2
ID : 3
Format : AC-3
Format/Info : Audio Coding 3
Mode extension : CM (complete main)
Codec ID : A_AC3
Duration : 47mn 32s
Bit rate mode : Constant
Bit rate : 384 Kbps
Channel(s) : 2 channels
Channel positions : Front: L R
Sampling rate : 48.0 KHz
Bit depth : 16 bits
Compression mode : Lossy
Stream size : 131 MiB (9%)
Title : Audio English
Language : English

Text #1
ID : 4
Format : UTF-8
Codec ID : S_TEXT/UTF8
Codec ID/Info : UTF-8 Plain Text
Language : Spanish

Text #2
ID : 5
Format : UTF-8
Codec ID : S_TEXT/UTF8
Codec ID/Info : UTF-8 Plain Text
Language : English

· · · · · · · · · · · · · · · : : | Servidores de Descarga | : : · · · · · · · · · · · · · · ·

· · : : | Uploaded | : : · ·
EP01: http://s2l.biz/rqt5ygm8ds7g
EP02: http://s2l.biz/rqt5ygm8ds7g
EP03: http://s2l.biz/rqt5ygm8ds7g
EP04: http://s2l.biz/rqt5ygm8ds7g
EP05: http://s2l.biz/rqt5ygm8ds7g




· · · · · · · · · · · · · · · : : | Otras Temporadas | : : · · · · · · · · · · · · · · ·

★ Temporada 2 en HD Aquí
★ Temporada 3 en HD Aquí
★ Temporada 4 en HD Aquí
★ Temporada 5 en HD Aquí
★ Temporada 6 en HD Aquí


☆ Temporada 1 en SD Aquí
☆ Temporada 2 en SD Aquí
☆ Temporada 3 en SD Aquí
☆ Temporada 4 en SD Aquí
☆ Temporada 5 en SD Aquí
☆ Temporada 6 en SD Aquí

Descargar ★ Los Soprano | T. 1 (HD) [HDRip] [ESP] [1500Mb] (13/13) [FS/ US/ WU] Gratis


20-ago-2011
Nukety
Premium User
Re: ★ Los Soprano | T. 1 (HD) [HDRip] [ESP] [1500Mb] (13/13) [FS/ US/ WU]
Añadidas nuevas temporadas!
12-oct-2011
Nukety
Premium User
Re: ★ Los Soprano | T. 1 (HD) [HDRip] [ESP] [1500Mb] (13/13) [FS/ US/ WU]
Añadido links a la 6º Temporada en HD
13-ene-2014
jlcr2001
New User
Re: ★ Los Soprano | T. 1 (HD) [HDRip] [ESP] [1500Mb] (13/13) [FS/ US/ WU]
Contraseña?

Necesitás estar Registrado para dejar comentarios en la descarga ★ Los Soprano | T. 1 (HD) [HDRip] [ESP] [1500Mb] (13/13) [FS/ US/ WU]

Información del Post


Descargas relacionadas con ★ Los Soprano | T. 1 (HD) [HDRip] [ESP] [1500Mb] (13/13) [FS/ US/ WU]