Argentina Warez » Descargas Gratis » Series de TV Gratis Casados con Hijos [Serie Argentina]
10-dic-2011
benjas09
Black User
Casados con Hijos [Serie Argentina]
Casados con Hijos


Datos:
Idioma: Argentino
Substitulos: No
Links: 1 por Capitulo



General
Complete name : 0-800 nabo.avi
Format : AVI
Format/Info : Audio Video Interleave
File size : 159 MiB
Duration : 22mn 30s
Overall bit rate : 988 Kbps
Writing application : SpanishDub 1.3
Writing library : VirtualDub build 14328/release

Video
ID : 0
Format : MPEG-4 Visual
Format settings, BVOP : No
Format settings, QPel : No
Format settings, GMC : No warppoints
Format settings, Matrix : Default (H.263)
Codec ID : DX50
Codec ID/Hint : DivX 5
Duration : 22mn 30s
Bit rate : 898 Kbps
Width : 352 pixels
Height : 288 pixels
Display aspect ratio : 3.761
Frame rate : 25.000 fps
Standard : PAL
Color space : YUV
Chroma subsampling : 4:2:0
Bit depth : 8 bits
Scan type : Progressive
Compression mode : Lossy
Bits/(Pixel*Frame) : 0.354
Stream size : 145 MiB (91%)
Writing library : DivX 6.5.1 (UTC 2007-03)

Audio
ID : 1
Format : MPEG Audio
Format version : Version 2
Format profile : Layer 3
Mode : Joint stereo
Mode extension : Intensity Stereo + MS Stereo
Codec ID : 55
Codec ID/Hint : MP3
Duration : 22mn 30s
Bit rate mode : Constant
Bit rate : 80.0 Kbps
Channel(s) : 2 channels
Sampling rate : 24.0 KHz
Compression mode : Lossy
Stream size : 12.9 MiB (8%)
Alignment : Split accross interleaves
Interleave, duration : 40 ms (1.00 video frame)
Interleave, preload duration : 453 ms




Descarga:
http://www.fileserve.com/file/GfJdb4x
http://www.fileserve.com/file/3nMYEc4
http://www.fileserve.com/file/PyuMvxj
http://www.fileserve.com/file/tBsazBy
http://www.fileserve.com/file/NzZtDJw
http://www.fileserve.com/file/hMzsKkd
http://www.fileserve.com/file/nGpy5UV
http://www.fileserve.com/file/cdQprzv
http://www.fileserve.com/file/8cvVddG
http://www.fileserve.com/file/RJcyJKB
http://www.fileserve.com/file/s2uTKhe
http://www.fileserve.com/file/uqZ4gZS
http://www.fileserve.com/file/A7XVXXc
http://www.fileserve.com/file/Bbsx6jf
http://www.fileserve.com/file/tbnqmKV
http://www.fileserve.com/file/kBcpd5u
http://www.fileserve.com/file/rGxuhKv
http://www.fileserve.com/file/Us5duxG
http://www.fileserve.com/file/sAKaqn5
http://www.fileserve.com/file/ux5yt2k
http://www.fileserve.com/file/xDafHma
http://www.fileserve.com/file/4fkwxqz
http://www.fileserve.com/file/4a5TAVT
http://www.fileserve.com/file/s25WHsn
http://www.fileserve.com/file/JPZvdAP
http://www.fileserve.com/file/4EDG2Rc
http://www.fileserve.com/file/nvbnaVZ
http://www.fileserve.com/file/DV6AKc3
http://www.fileserve.com/file/TAE4jVp
http://www.fileserve.com/file/7UGqZ75
http://www.fileserve.com/file/dAzCjfK
http://www.fileserve.com/file/fCyQvvv
http://www.fileserve.com/file/7MmVJZG

Descargar Casados con Hijos [Serie Argentina] Gratis


10-dic-2011
DARKNESSDK
Lead User
Re: Casados con Hijos [Serie Argentina]
cojonudo graxias voludo
24-dic-2012
rsalim
White User
Re: Casados con Hijos [Serie Argentina]
link muertos

Necesitás estar Registrado para dejar comentarios en Casados con Hijos [Serie Argentina]

Información del Post