Mad Men T.1 [HDTV] [DUAL] [650MB] [13/13] | FS US FJ UL FSO |


Descargar Mad Men T.1 [HDTV] [DUAL] [650MB] [13/13] | FS US FJ UL FSO | Gratis 1 link por Mega y Mediafire



Argentina Warez » Descargas Gratis » Series de TV Gratis Mad Men T.1 [HDTV] [DUAL] [650MB] [13/13] | FS US FJ UL FSO |
31-dic-2011
Nukety
Premium User
Mad Men T.1 [HDTV] [DUAL] [650MB] [13/13][UL LE SF DF]
Mad Men | Temporada 1 | Capitulos [13/13]



Título: Mad Men
Título Original: Mad Men
Año: 2007
País: USA
Duración: 40 min.
Género: Drama
Creador: Matthew Weiner
Productora: Lionsgate Television



Sinopsis: Aclamadísima serie dramática que narra los comienzos de una de las más prestigiosas agencias de publicidad de los años sesenta, y centrada en uno de los más misteriosos ejecutivos de la firma, Donald Draper. Un hombre con un gran talento. "Mad Men" es la mirada a los hombres que dieron forma a las esperanzas y sueños diarios de los americanos de la época. En 1960 la publicidad era considerada una de las profesiones con más glamour de la época. Era un momento de gran ebullición en todos los sentidos; la manipulación profesional y el acoso sexual son parte del trabajo y de los negocios. Sterling Cooper Advertising diseñaba mejor que nadie las campañas de publicidad. Su lema era: "No importa lo que seas. Lo importante es cómo lo vendas...".



Temporada: 1
Nº de Capitulos: 13
Rip: HDTV
Formato: 480p
Contenedor: AVI
Audio: Castellano e Inglés
Tamaño: 650MB
Rippeo: Jesuscas
Spoiler
Format : AVI
Format/Info : Audio Video Interleave
File size : 653 MiB
Duration : 46mn 31s
Overall bit rate : 1 962 Kbps
Writing application : VirtualDubMod 1.5.10.1 (build 2366/release)
Writing library : VirtualDubMod build 2366/release

Video
ID : 0
Format : MPEG-4 Visual
Format profile : Simple@L3
Format settings, BVOP : No
Format settings, QPel : No
Format settings, GMC : No warppoints
Format settings, Matrix : Default (H.263)
Codec ID : XVID
Codec ID/Hint : XviD
Duration : 46mn 31s
Bit rate : 1 595 Kbps
Width : 704 pixels
Height : 396 pixels
Display aspect ratio : 16:9
Frame rate : 25.000 fps
Color space : YUV
Chroma subsampling : 4:2:0
Bit depth : 8 bits
Scan type : Progressive
Compression mode : Lossy
Bits/(Pixel*Frame) : 0.229
Stream size : 531 MiB (81%)
Writing library : XviD 1.2.0.dev47 (UTC 2006-11-01)

Audio #1
ID : 1
Format : MPEG Audio
Format version : Version 1
Format profile : Layer 3
Mode : Joint stereo
Codec ID : 55
Codec ID/Hint : MP3
Duration : 46mn 31s
Bit rate mode : Constant
Bit rate : 192 Kbps
Channel(s) : 2 channels
Sampling rate : 48.0 KHz
Compression mode : Lossy
Stream size : 63.9 MiB (10%)
Alignment : Aligned on interleaves
Interleave, duration : 40 ms (1.00 video frame)
Interleave, preload duration : 504 ms

Audio #2
ID : 2
Format : MPEG Audio
Format version : Version 1
Format profile : Layer 3
Mode : Joint stereo
Codec ID : 55
Codec ID/Hint : MP3
Duration : 46mn 31s
Bit rate mode : Constant
Bit rate : 160 Kbps
Channel(s) : 2 channels
Sampling rate : 48.0 KHz
Compression mode : Lossy
Stream size : 53.2 MiB (8%)
Alignment : Aligned on interleaves
Interleave, duration : 40 ms (1.00 video frame)
Interleave, preload duration : 504 ms


Links Temporada 1

Uploaded http://linksave.in/20175368744eea1af4c2258

LetItBit http://letitbit.net/folder/19090871/12358048

ShareFlare http://pastebin.com/XU4Kepr2

DepositFiles http://depositfiles.com/folders/TUSH5E94R


☆ Temporada 1 en SD Aquí
☆ Temporada 2 en SD Aquí
☆ Temporada 3 en SD Aquí
☆ Temporada 4 en SD Aquí


★ Temporada 1 en HD Aquí
★ Temporada 2 en HD Aquí
★ Temporada 4 en HD Aquí

Descargar Mad Men T.1 [HDTV] [DUAL] [650MB] [13/13] | FS US FJ UL FSO | Gratis


01-feb-2012
Nukety
Premium User
Re: Mad Men T.1 [HDTV] [DUAL] [650MB] [13/13] | FS US FJ UL FSO |

. : : Aporte Resubido y Añadidos Servidores : : .

09-nov-2013
gato7n
White User
Re: Mad Men T.1 [HDTV] [DUAL] [650MB] [13/13] | FS US FJ UL FSO |
tienes los subtitulos ?????

Necesitás estar Registrado para dejar comentarios en la descarga Mad Men T.1 [HDTV] [DUAL] [650MB] [13/13] | FS US FJ UL FSO |

Información del Post