Emma [DVDRip][Español][570MB][4/4][RG][1LINK]


Descargar Emma [DVDRip][Español][570MB][4/4][RG][1LINK] Gratis 1 link por Mega y Mediafire



Argentina Warez » Descargas Gratis » Series de TV Gratis Emma [DVDRip][Español][570MB][4/4][RG][1LINK]
09-abr-2012
pacocomic
Gold User
Emma [DVDRip][Español][570MB][4/4][RG][1LINK]

Título original Emma
País: Reino Unido
Año: 2009
Duración: cuatro capitulos de 50 min
Director: Jim O´Hanlon
Guión: Sandy Welch, basado en la novela de Jane Austen
Música: Samuel Sim
Fotografía: Adam Suschitzky
Productora: BBC
Género: Drama romántico de época
Reparto: Romola Garai, Jonny Lee Miller, Michael Gambon, Louise Dylan, Jodhi May, Robert Bathurst, Rupert Evans
Idioma: Español


Emma Woodhouse, una joven hermosa, inteligente y rica, está convencida de que tiene un don para hacer de casamentera después de los felices enlaces de su hermana mayor y su institutriz. No le importa que, tal y como le revela el Sr. Knightley, ella en realidad no tuvo nada que ver con esas uniones. Cegada por su inexistente don, se enzarza en un juego peligroso y persuade a su nueva amiga Harriet Smith, una joven y hermosa pero de una escala social inferior, para que rechace la atractiva propuesta de matrimonio de un granjero del pueblo.

Nº de Capítulos: 4

Código:
Format                                   : AVI
Format/Info                              : Audio Video Interleave
File size                                : 564 MiB
Duration                                 : 52mn 44s
Overall bit rate                         : 1 495 Kbps
Writing application                      : MEncoder dev-SVN-r23673-4.2.0
Writing library                          : MPlayer

Video
ID                                       : 0
Format                                   : MPEG-4 Visual
Format profile                           : Advanced Simple@L5
Format settings, BVOP                    : 2
Format settings, QPel                    : No
Format settings, GMC                     : No warppoints
Format settings, Matrix                  : Default (H.263)
Codec ID                                 : XVID
Codec ID/Hint                            : XviD
Duration                                 : 52mn 44s
Bit rate                                 : 1 419 Kbps
Width                                    : 640 pixels
Height                                   : 360 pixels
Display aspect ratio                     : 16:9
Frame rate                               : 23.976 fps
Color space                              : YUV
Chroma subsampling                       : 4:2:0
Bit depth                                : 8 bits
Scan type                                : Progressive
Compression mode                         : Lossy
Bits/(Pixel*Frame)                       : 0.257
Stream size                              : 535 MiB (95%)
Writing library                          : XviD 1.2.0.dev47 (UTC 2006-11-01)

Audio
ID                                       : 1
Format                                   : MPEG Audio
Format version                           : Version 1
Format profile                           : Layer 3
Mode                                     : Joint stereo
Mode extension                           : MS Stereo
Codec ID                                 : 55
Codec ID/Hint                            : MP3
Duration                                 : 52mn 44s
Bit rate mode                            : Constant
Bit rate                                 : 64.0 Kbps
Channel(s)                               : 2 channels
Sampling rate                            : 48.0 KHz
Compression mode                         : Lossy
Delay relative to video                  : 42ms
Stream size                              : 24.1 MiB (4%)
Alignment                                : Aligned on interleaves
Interleave, duration                     : 24 ms (0.58 video frame)
Interleave, preload duration             : 504 ms
Código:
http://rapidgator.net/file/3018297/Emma_01_2009_BBC_pacopando.avi.html
http://rapidgator.net/file/3018127/Emma_02_2009_BBC_pacopando.avi.html
http://rapidgator.net/file/3018589/Emma_03_2009_BBC_pacopando.avi.html
http://rapidgator.net/file/3018438/Emma_04_2009_BBC_pacopando.avi.html

Descargar Emma [DVDRip][Español][570MB][4/4][RG][1LINK] Gratis


10-abr-2012
beguvi
Premier User
Re: Emma [DVDRip][Español][570MB][4/4][RG][1LINK]
gracias