Buenas noches y Buenafuente T.1 [DVBRip] [Castellano] [1GB]


Descargar Buenas noches y Buenafuente T.1 [DVBRip] [Castellano] [1GB] Gratis 1 link por Mega y Mediafire



Argentina Warez » Descargas Gratis » Series de TV Gratis Buenas noches y Buenafuente T.1 [DVBRip] [Castellano] [1GB]
23-abr-2012
kakaflo
Silver User
Buenas noches y Buenafuente T.1 [DVBRip] [Castellano] [1GB]



PRESENTADOR: Andreu Buenafuente
CO-PRESENTADORES: Berto y Corbacho
AÑO: 2012
DURACIÓN: 90 min. aprox.
PAÍS: España
Cadena: Antena 3

INFO DEL RIPEO
Spoiler
Código:
Format                                   : AVI
Format/Info                              : Audio Video Interleave
Format profile                           : OpenDML
File size                                : 1.06 GiB
Duration                                 : 1h 32mn
Overall bit rate                         : 1 646 Kbps
Writing application                      : Lavf52.94.0

Video
ID                                       : 0
Format                                   : AVC
Format/Info                              : Advanced Video Codec
Format profile                           : Main@L3.1
Format settings, CABAC                   : Yes
Format settings, ReFrames                : 2 frames
Codec ID                                 : H264
Duration                                 : 1h 32mn
Bit rate                                 : 1 300 Kbps
Width                                    : 1 024 pixels
Height                                   : 576 pixels
Display aspect ratio                     : 16:9
Frame rate mode                          : Variable
Frame rate                               : 25.000 fps
Color space                              : YUV
Chroma subsampling                       : 4:2:0
Bit depth                                : 8 bits
Scan type                                : Progressive
Bits/(Pixel*Frame)                       : 0.088
Stream size                              : 864 MiB (80%)
Writing library                          : x264 core 112 r1834 a51816a
Encoding settings                        : cabac=1 / ref=1 / deblock=1:0:0 / analyse=0x1:0 / me=dia / subme=2 / psy=1 / psy_rd=0.00:0.00 / mixed_ref=0 / me_range=16 / chroma_me=1 / trellis=0 / 8x8dct=0 / cqm=0 / deadzone=21,11 / fast_pskip=1 / chroma_qp_offset=0 / threads=4 / sliced_threads=0 / nr=0 / decimate=1 / interlaced=0 / constrained_intra=0 / bframes=3 / b_pyramid=0 / b_adapt=1 / b_bias=0 / direct=3 / weightb=0 / open_gop=0 / weightp=2 / keyint=250 / keyint_min=25 / scenecut=40 / intra_refresh=0 / rc_lookahead=40 / rc=abr / mbtree=1 / bitrate=1300 / ratetol=1.0 / qcomp=0.60 / qpmin=10 / qpmax=51 / qpstep=4 / ip_ratio=1.41 / aq=1:1.00

Audio
ID                                       : 1
Format                                   : MPEG Audio
Format version                           : Version 1
Format profile                           : Layer 3
Mode                                     : Joint stereo
Codec ID                                 : 55
Codec ID/Hint                            : MP3
Duration                                 : 1h 32mn
Bit rate mode                            : Constant
Bit rate                                 : 320 Kbps
Channel(s)                               : 2 channels
Sampling rate                            : 48.0 KHz
Compression mode                         : Lossy
Stream size                              : 11.6 MiB (1%)
Alignment                                : Aligned on interleaves
Interleave, duration                     : 436 ms (10.91 video frames)
Writing library                          : LAME3.98.4

Berto, Corbacho y Buenafuente, una combinación de lujo, consiguió arrancar las risas del público con diversos scketches humorísticos sobre la actualidad más candente de nuestro país. 'Buenas noches y Buenafuente' arrancó con una especie de desembarco de Normandía, en el que todo el equipo del programa se dispone a conquistar el ‘prime time’ del domingo, encontrándose por el camino a distintos personajes como Bin Laden, David Meca o Karlos Arguiñano, dándole el toque absurdo que siempre caracterizan a los scketches de Andreu.
Después de este espectacular comienzo, Buenafuente se lanzó con su tradicional monólogo inicial, en el que el Rey, Froilán y Urdangarín se convirtieron en los protagonistas.

LISTADO DE CAPÍTULOS
Programa 1 (15/04/2012)
Programa 2 (22/04/2012) con Alaska, Ana Obregón, Mario Vaquerizo, Estopa y Lana del Rey
Programa 3 (29/04/2012) con el cantante Miguel Bosé y la actriz Scarlett Johansson
Programa 4 (06/05/2012) con el cantante David Bustamante y con Millán Salcedo
Programa 5 (13/05/2012) con Concha Velasco (pendiente de subir)





Esto quiere decir que puedes descargar varios archivos desde distintos servidores a la vez.Esto resulta muy útil para gente sin cuentas premium o con conexiones lentas.


rakk






ABRE ESTE BLOC DE NOTAS PARA VER LOS ENLACES





SI TENÉIS ALGÚN PROBLEMA CON LOS LINKS, ETC. AVISAD POR MP.

Descargar Buenas noches y Buenafuente T.1 [DVBRip] [Castellano] [1GB] Gratis


24-abr-2012
b1tx0
New User
Re: Buenas noches y Buenafuente T.1 [DVBRip] [Castellano] [1GB]
muxas gracias por el trabajo
04-may-2012
adrian1965
Platinum User
Re: Buenas noches y Buenafuente T.1 [DVBRip] [Castellano] [1GB]
genial, gracias!!!
12-may-2012
kakaflo
Silver User
Re: Buenas noches y Buenafuente T.1 [DVBRip] [Castellano] [1GB]
Añadidos los programas:
Programa 3 (29/04/2012) con el cantante Miguel Bosé y la actriz Scarlett Johansson
Programa 4 (06/05/2012) con el cantante David Bustamante y con Millán Salcedo
27-jun-2012
gdavid58
New User
Re: Buenas noches y Buenafuente T.1 [DVBRip] [Castellano] [1GB]
gracias amigos

Necesitás estar Registrado para dejar comentarios en la descarga Buenas noches y Buenafuente T.1 [DVBRip] [Castellano] [1GB]

Información del Post