The Walking Dead [1 Temporada][Español Latino][DVDRip][MF-JF-RS]


Descargar The Walking Dead [1 Temporada][Español Latino][DVDRip][MF-JF-RS] Gratis 1 link por Mega y Mediafire



Argentina Warez » Descargas Gratis » Series de TV Gratis The Walking Dead [1 Temporada][Español Latino][DVDRip][MF-JF-RS]
25-jul-2012
MecF
Premier User
The Walking Dead [1 Temporada][Español Latino][DVDRip][MF-JF-RS]


Calidad: DVDRip
Audio: Español Latino
Servidores: MediaFire, JumboFiles, RapidShare
Peso: 650 - 700 Mb
Contraseña: MecF

Capítulo 1 - Español Latino - DVDrip


Spoiler

Datos del Ripeo:
Spoiler


Código:
General
Complete name                            : TW_T01E01_Lat.avi
Format                                   : AVI
Format/Info                              : Audio Video Interleave
File size                                : 699 MiB
Duration                                 : 47mn 0s
Overall bit rate mode                    : Variable
Overall bit rate                         : 2 081 Kbps
Movie name                               : TWD.T1E1.DVDRip.LATINO.XviD-Johual
Director                                 : 
Subject                                  : 
Recorded date                            : 22-04-2012
Writing application                      : VirtualDubMod 1.5.4.1 (build 2178/release) VirtualDubMod build 2178/release
Original source form/Name                : Movie
Copyright                                : 

Video
ID                                       : 0
Format                                   : MPEG-4 Visual
Format profile                           : Advanced Simple@L5
Format settings, BVOP                    : 1
Format settings, QPel                    : No
Format settings, GMC                     : No warppoints
Format settings, Matrix                  : Custom
Codec ID                                 : XVID
Codec ID/Hint                            : XviD
Duration                                 : 47mn 0s
Bit rate                                 : 1 955 Kbps
Width                                    : 720 pixels
Height                                   : 416 pixels
Display aspect ratio                     : 16:9
Frame rate                               : 29.970 fps
Color space                              : YUV
Chroma subsampling                       : 4:2:0
Bit depth                                : 8 bits
Scan type                                : Progressive
Compression mode                         : Lossy
Bits/(Pixel*Frame)                       : 0.218
Stream size                              : 657 MiB (94%)
Writing library                          : XviD 64

Audio
ID                                       : 1
Format                                   : MPEG Audio
Format version                           : Version 1
Format profile                           : Layer 3
Mode                                     : Joint stereo
Mode extension                           : MS Stereo
Codec ID                                 : 55
Codec ID/Hint                            : MP3
Duration                                 : 47mn 0s
Bit rate mode                            : Variable
Bit rate                                 : 112 Kbps
Nominal bit rate                         : 128 Kbps
Channel(s)                               : 2 channels
Sampling rate                            : 48.0 KHz
Compression mode                         : Lossy
Stream size                              : 37.7 MiB (5%)
Alignment                                : Aligned on interleaves
Interleave, duration                     : 24 ms (0.72 video frame)
Interleave, preload duration             : 164 ms
Writing library                          : LAME3.98r
Encoding settings                        : -m j -V 4 -q 2 -lowpass 17 --abr 128
Language                                 : un



Capítulo 2 - Español Latino - DVDrip


Spoiler

Datos del Ripeo:
Spoiler
Código:
General
Complete name                            : TW_T01E02_Lat.avi
Format                                   : AVI
Format/Info                              : Audio Video Interleave
File size                                : 700 MiB
Duration                                 : 44mn 42s
Overall bit rate mode                    : Variable
Overall bit rate                         : 2 188 Kbps
Writing application                      : VirtualDubMod 1.5.4.1 (build 2178/release)
Writing library                          : VirtualDubMod build 2178/release

Video
ID                                       : 0
Format                                   : MPEG-4 Visual
Format profile                           : Advanced Simple@L5
Format settings, BVOP                    : 1
Format settings, QPel                    : No
Format settings, GMC                     : No warppoints
Format settings, Matrix                  : Custom
Codec ID                                 : XVID
Codec ID/Hint                            : XviD
Duration                                 : 44mn 42s
Bit rate                                 : 2 063 Kbps
Width                                    : 720 pixels
Height                                   : 416 pixels
Display aspect ratio                     : 16:9
Frame rate                               : 29.970 fps
Color space                              : YUV
Chroma subsampling                       : 4:2:0
Bit depth                                : 8 bits
Scan type                                : Progressive
Compression mode                         : Lossy
Bits/(Pixel*Frame)                       : 0.230
Stream size                              : 660 MiB (94%)
Writing library                          : XviD 64

Audio
ID                                       : 1
Format                                   : MPEG Audio
Format version                           : Version 1
Format profile                           : Layer 3
Mode                                     : Joint stereo
Mode extension                           : MS Stereo
Codec ID                                 : 55
Codec ID/Hint                            : MP3
Duration                                 : 44mn 42s
Bit rate mode                            : Variable
Bit rate                                 : 111 Kbps
Nominal bit rate                         : 128 Kbps
Channel(s)                               : 2 channels
Sampling rate                            : 48.0 KHz
Compression mode                         : Lossy
Stream size                              : 35.5 MiB (5%)
Alignment                                : Aligned on interleaves
Interleave, duration                     : 24 ms (0.72 video frame)
Interleave, preload duration             : 166 ms
Writing library                          : LAME3.98r
Encoding settings                        : -m j -V 4 -q 2 -lowpass 17 --abr 128


Capítulo 3 - Español Latino - DVDrip


Spoiler


Datos del Ripeo:
Spoiler


Código:
General
Complete name                            : TW_T01E03_Lat.avi
Format                                   : AVI
Format/Info                              : Audio Video Interleave
File size                                : 699 MiB
Duration                                 : 45mn 11s
Overall bit rate mode                    : Variable
Overall bit rate                         : 2 164 Kbps
Movie name                               : TWD.T1E3.DVDRip.LATINO.XviD-Johual
Director                                 : 
Recorded date                            : 22-04-2012
Writing application                      : VirtualDubMod 1.5.4.1 (build 2178/release) VirtualDubMod build 2178/release
Original source form/Name                : Serie de TV
Copyright                                : 
Comment                                  : 

Video
ID                                       : 0
Format                                   : MPEG-4 Visual
Format profile                           : Advanced Simple@L5
Format settings, BVOP                    : 1
Format settings, QPel                    : No
Format settings, GMC                     : No warppoints
Format settings, Matrix                  : Custom
Codec ID                                 : XVID
Codec ID/Hint                            : XviD
Duration                                 : 45mn 11s
Bit rate                                 : 2 037 Kbps
Width                                    : 720 pixels
Height                                   : 416 pixels
Display aspect ratio                     : 16:9
Frame rate                               : 29.970 fps
Color space                              : YUV
Chroma subsampling                       : 4:2:0
Bit depth                                : 8 bits
Scan type                                : Progressive
Compression mode                         : Lossy
Bits/(Pixel*Frame)                       : 0.227
Stream size                              : 658 MiB (94%)
Writing library                          : XviD 64

Audio
ID                                       : 1
Format                                   : MPEG Audio
Format version                           : Version 1
Format profile                           : Layer 3
Mode                                     : Joint stereo
Mode extension                           : MS Stereo
Codec ID                                 : 55
Codec ID/Hint                            : MP3
Duration                                 : 45mn 11s
Bit rate mode                            : Variable
Bit rate                                 : 113 Kbps
Nominal bit rate                         : 128 Kbps
Channel(s)                               : 2 channels
Sampling rate                            : 48.0 KHz
Compression mode                         : Lossy
Stream size                              : 36.6 MiB (5%)
Alignment                                : Aligned on interleaves
Interleave, duration                     : 24 ms (0.72 video frame)
Interleave, preload duration             : 162 ms
Writing library                          : LAME3.98r
Encoding settings                        : -m j -V 4 -q 2 -lowpass 17 --abr 128
Language                                 : un


Capítulo 4 - Español Latino - DVDrip


Spoiler

Datos del Ripeo:
Spoiler

Código:
General
Complete name                            : TW_T01E04_Lat.avi
Format                                   : AVI
Format/Info                              : Audio Video Interleave
File size                                : 699 MiB
Duration                                 : 44mn 54s
Overall bit rate mode                    : Variable
Overall bit rate                         : 2 178 Kbps
Writing application                      : VirtualDubMod 1.5.4.1 (build 2178/release)
Writing library                          : VirtualDubMod build 2178/release

Video
ID                                       : 0
Format                                   : MPEG-4 Visual
Format profile                           : Advanced Simple@L5
Format settings, BVOP                    : 1
Format settings, QPel                    : No
Format settings, GMC                     : No warppoints
Format settings, Matrix                  : Custom
Codec ID                                 : XVID
Codec ID/Hint                            : XviD
Duration                                 : 44mn 53s
Bit rate                                 : 2 052 Kbps
Width                                    : 720 pixels
Height                                   : 416 pixels
Display aspect ratio                     : 16:9
Frame rate                               : 29.970 fps
Color space                              : YUV
Chroma subsampling                       : 4:2:0
Bit depth                                : 8 bits
Scan type                                : Progressive
Compression mode                         : Lossy
Bits/(Pixel*Frame)                       : 0.229
Stream size                              : 659 MiB (94%)
Writing library                          : XviD 64

Audio
ID                                       : 1
Format                                   : MPEG Audio
Format version                           : Version 1
Format profile                           : Layer 3
Mode                                     : Joint stereo
Mode extension                           : MS Stereo
Codec ID                                 : 55
Codec ID/Hint                            : MP3
Duration                                 : 44mn 54s
Bit rate mode                            : Variable
Bit rate                                 : 112 Kbps
Nominal bit rate                         : 128 Kbps
Channel(s)                               : 2 channels
Sampling rate                            : 48.0 KHz
Compression mode                         : Lossy
Stream size                              : 36.1 MiB (5%)
Alignment                                : Aligned on interleaves
Interleave, duration                     : 24 ms (0.72 video frame)
Interleave, preload duration             : 164 ms
Writing library                          : LAME3.98r
Encoding settings                        : -m j -V 4 -q 2 -lowpass 17 --abr 128


Capítulo 5 - Español Latino - DVDrip


Spoiler

Datos del Ripeo:
Spoiler

Código:
General
Complete name                            : TW_T01E05_Lat.avi
Format                                   : AVI
Format/Info                              : Audio Video Interleave
File size                                : 699 MiB
Duration                                 : 45mn 21s
Overall bit rate mode                    : Variable
Overall bit rate                         : 2 156 Kbps
Movie name                               : TWD.T1E5.DVDRip.LATINO.XviD-Johual
Director                                 : 
Recorded date                            : 22-04-2012
Writing application                      : VirtualDubMod 1.5.4.1 (build 2178/release) VirtualDubMod build 2178/release
Original source form/Name                : Serie de TV
Copyright                                :
Comment                                  : 

Video
ID                                       : 0
Format                                   : MPEG-4 Visual
Format profile                           : Advanced Simple@L5
Format settings, BVOP                    : 1
Format settings, QPel                    : No
Format settings, GMC                     : No warppoints
Format settings, Matrix                  : Custom
Codec ID                                 : XVID
Codec ID/Hint                            : XviD
Duration                                 : 45mn 21s
Bit rate                                 : 2 030 Kbps
Width                                    : 720 pixels
Height                                   : 416 pixels
Display aspect ratio                     : 16:9
Frame rate                               : 29.970 fps
Color space                              : YUV
Chroma subsampling                       : 4:2:0
Bit depth                                : 8 bits
Scan type                                : Progressive
Compression mode                         : Lossy
Bits/(Pixel*Frame)                       : 0.226
Stream size                              : 659 MiB (94%)
Writing library                          : XviD 64

Audio
ID                                       : 1
Format                                   : MPEG Audio
Format version                           : Version 1
Format profile                           : Layer 3
Mode                                     : Joint stereo
Mode extension                           : MS Stereo
Codec ID                                 : 55
Codec ID/Hint                            : MP3
Duration                                 : 45mn 21s
Bit rate mode                            : Variable
Bit rate                                 : 112 Kbps
Nominal bit rate                         : 128 Kbps
Channel(s)                               : 2 channels
Sampling rate                            : 48.0 KHz
Compression mode                         : Lossy
Stream size                              : 36.4 MiB (5%)
Alignment                                : Aligned on interleaves
Interleave, duration                     : 24 ms (0.72 video frame)
Interleave, preload duration             : 164 ms
Writing library                          : LAME3.98r
Encoding settings                        : -m j -V 4 -q 2 -lowpass 17 --abr 128
Language                                 : un


Capítulo 6 - Español Latino - DVDrip


Spoiler

Datos del Ripeo:
Spoiler

Código:
General
Complete name                            : TW_T01E06_Lat.avi
Format                                   : AVI
Format/Info                              : Audio Video Interleave
File size                                : 699 MiB
Duration                                 : 45mn 21s
Overall bit rate mode                    : Variable
Overall bit rate                         : 2 156 Kbps
Movie name                               : TWD.T1E6.DVDRip.LATINO.XviD-Johual
Director                                 : 
Recorded date                            : 22-04-2012
Writing application                      : VirtualDubMod 1.5.4.1 (build 2178/release) VirtualDubMod build 2178/release
Original source form/Name                : Serie de TV
Copyright                                :
Comment                                  : 

Video
ID                                       : 0
Format                                   : MPEG-4 Visual
Format profile                           : Advanced Simple@L5
Format settings, BVOP                    : 1
Format settings, QPel                    : No
Format settings, GMC                     : No warppoints
Format settings, Matrix                  : Custom
Codec ID                                 : XVID
Codec ID/Hint                            : XviD
Duration                                 : 45mn 21s
Bit rate                                 : 2 030 Kbps
Width                                    : 720 pixels
Height                                   : 416 pixels
Display aspect ratio                     : 16:9
Frame rate                               : 29.970 fps
Color space                              : YUV
Chroma subsampling                       : 4:2:0
Bit depth                                : 8 bits
Scan type                                : Progressive
Compression mode                         : Lossy
Bits/(Pixel*Frame)                       : 0.226
Stream size                              : 659 MiB (94%)
Writing library                          : XviD 64

Audio
ID                                       : 1
Format                                   : MPEG Audio
Format version                           : Version 1
Format profile                           : Layer 3
Mode                                     : Joint stereo
Mode extension                           : MS Stereo
Codec ID                                 : 55
Codec ID/Hint                            : MP3
Duration                                 : 45mn 21s
Bit rate mode                            : Variable
Bit rate                                 : 112 Kbps
Nominal bit rate                         : 128 Kbps
Channel(s)                               : 2 channels
Sampling rate                            : 48.0 KHz
Compression mode                         : Lossy
Stream size                              : 36.4 MiB (5%)
Alignment                                : Aligned on interleaves
Interleave, duration                     : 24 ms (0.72 video frame)
Interleave, preload duration             : 164 ms
Writing library                          : LAME3.98r
Encoding settings                        : -m j -V 4 -q 2 -lowpass 17 --abr 128
Language                                 : un

Descargar The Walking Dead [1 Temporada][Español Latino][DVDRip][MF-JF-RS] Gratis



Necesitás estar Registrado para dejar comentarios en la descarga The Walking Dead [1 Temporada][Español Latino][DVDRip][MF-JF-RS]

Información del Post