Argentina Warez » Descargas Gratis » Series de TV Gratis Rusia Vs Portugal [Eliminatorias Brasil 2014] [Castellano Canal+]
12-oct-2012
jltr03
Bronze User
Rusia Vs Portugal [Eliminatorias Brasil 2014] [Castellano Canal+]



Spoiler
Código:
Format                           : MPEG-TS
File size                        : 1.33 GiB
Duration                         : 52mn 4s
Overall bit rate                 : 3 668 Kbps

Video
ID                               : 160 (0xA0)
Menu ID                          : 1 (0x1)
Format                           : MPEG Video
Format version                   : Version 2
Format profile                   : Main@Main
Format settings, BVOP            : Yes
Format settings, Matrix          : Default
Format_Settings_GOP              : M=3, N=12
Duration                         : 52mn 4s
Bit rate mode                    : Variable
Bit rate                         : 3 285 Kbps
Nominal bit rate                 : 15.0 Mbps
Width                            : 720 pixels
Height                           : 576 pixels
Display aspect ratio             : 16:9
Frame rate                       : 25.000 fps
Standard                         : PAL
Resolution                       : 8 bits
Colorimetry                      : 4:2:0
Scan type                        : Interlaced
Scan order                       : Top Field First
Bits/(Pixel*Frame)               : 0.317
Stream size                      : 1.19 GiB (90%)

Audio
ID                               : 80 (0x50)
Menu ID                          : 1 (0x1)
Format                           : MPEG Audio
Format version                   : Version 1
Format profile                   : Layer 2
Mode                             : Joint stereo
Duration                         : 52mn 4s
Bit rate mode                    : Constant
Bit rate                         : 128 Kbps
Channel(s)                       : 2 channels
Sampling rate                    : 48.0 KHz
Stream size                      : 47.7 MiB (3%)
Language                         : English




http://4d05ef8a.linkbucks.com

Descargar Rusia Vs Portugal [Eliminatorias Brasil 2014] [Castellano Canal+] Gratis


12-oct-2012
Rafa450
Premier User
Re: Rusia Vs Portugal [Eliminatorias Brasil 2014] [Castellano Canal+]
Gracias!!
12-oct-2012
Emegedos
Premier User
Re: Rusia Vs Portugal [Eliminatorias Brasil 2014] [Castellano Canal+]
Muchas gracias

Necesitás estar Registrado para dejar comentarios en Rusia Vs Portugal [Eliminatorias Brasil 2014] [Castellano Canal+]

Información del Post


Posts relacionados con Rusia Vs Portugal [Eliminatorias Brasil 2014] [Castellano Canal+]