Gossip Girl T.1 [DVD+DVB] [DUAL] [550MB] [18/18] [ MultiHost ] 1 Link




Argentina Warez » Descargas Gratis » Series de TV Gratis Gossip Girl T.1 [DVD+DVB] [DUAL] [550MB] [18/18] [ MultiHost ] 1 Link
18-nov-2012
Nukety
Premium User
Gossip Girl T.1 [DVD+DVB] [DUAL] [550MB] [18/18] [ MultiHost ] 1 Link
Gossip Girl | Temporada 01 | Capitulos [18/18]



· · · · · · · · · · · · · · · : : | Ficha Técnica | : : · · · · · · · · · · · · · · ·

Título: Gossip Girl
Título Original: Gossip Girl
Año: 2007
País: USA
Duración: 40 min.
Género: Drama | Romance
Creador: Josh Schwartz, Stephanie Savage
Productora: Alloy Entertainment / Warner Bros. Television / CBS Paramount Television


· · · · · · · · · · · · · · · : : | Reparto | : : · · · · · · · · · · · · · · ·


★ Chace Crawford ★ Leighton Meester ★ Blake Lively ★ Penn Badgley ★ Taylor Momsen ★ Ed Westwick ★ Kelly Rutherford ★ Connor Paolo ★ Matthew Settle ★ Nicole Fiscella

· · · · · · · · · · · · · · · : : | Sinopsis | : : · · · · · · · · · · · · · · ·

Los adolescentes privilegiados que acuden a la escuela pre-universitaria Upper East Side de Manhattan, supieron que Serena van der Woodsen (Blake Lively, Uno para todas) está de vuelta en la ciudad, de la misma forma en la que desubren todas las cosas importantes en sus vidas... por medio del blog de la "Gossip Girl". Nadie conoce la identidad de la persona que está detrás de ese blog, pero todos los que integran este círculo vicioso tan exclusivo y complicado, confía en esta página y en sus mensajes para enterarse de los últimos chismes. Incluso la mejor amiga de Serena, Blair Waldorf (Leighton Meester, El Séquito), se sorprende al averiguar que Serena ha puesto fin de repente a su autoimpuesto exilio en un internado y que ha regresado a Manhattan.

Aunque en el pasado era la chica más popular de Upper East Side, las razones para el regreso de Serena son misteriosas, aunque pueden tener que ver con su hermano menor Eric (Connor Paolo, Alejandro Magno). Sean cuales sean estas razones, el cambio experimentado por Serena es obvio, especialmente para Blair, cuya amistad con Serena ha sido siempre competitiva y difícil. Mientras Serena ha estado fuera, Blair ha estado disfrutando de su puesto en el escalafón popular y no tiene ninguna intención de volver a vivir a su sombra. Su difícil relación aún se complica más por el novio de Blair, Nate (Chace Crawford, La alianza del mal), un joven inquieto que disfruta de todos los privilegios que le ha proporcionado su poderoso e importante padre Howie "El Capitán" Archibald (Sam Robards, El ala oeste de la Casa Blanca). Ahora que Serena ha vuelto, Blair tendrá que pelear por mantener la atención de nate sobre ella. Además, está por ver si las leales lugartenientes de Blair, Katy (Nan Zhang) e Isabel (Nicole Fiscella), permanecerán a su lado o romperán filas para seguir a Serena.

La tensión entre Blair y Serena no es desconocida para nadie en la escuela, ya que todos viven para los rumores y el escándalo, junto con la moda, las compras y las fiestas en los más exclusivos clubes de Manhattan. Es un mundo en que todos deberñiamos haber nacido, lleno de riqueza, poder y gente como Chuck (Ed Westwick, Hijos de los hombres), un amigo de la infancia de Nate, que le empuja a llevar una vida contemplativa, animando constantemente a Nate a explorar su lado más oscuro.

Los "bichos raros" de la escuela preparatoria son Dan (Penn Badgley, The Bedford Diaries) y su hermana Jenny (Taylor Momsen, El Grinch), chicos de clase media cuyos orígenes los mantiennen fuera del círculo exclusivo. Ambos acuden a esta escuela ante la insistencia de su padre Rufus (Matthew Settle, Into The West), una antigua estrella del rock convertido en propietario de la galería de arte, decidido a dar a los chicos una educación de primera clase. Rufus tiene una historia sentimental con la madre de Serena, Lily (Kelly Rutherford, Melrose Place), una mujer elitista que oculta su pasado como bailarina y "grupie" de grupos de rock.

Cuando un encuentro casual atrae la atención de Serena sobre Dan, éste de repente se ve saliendo con la chica de sus sueños. Cuando más descubre sobre la verdadera Serena, más decidido está Dan en darle sentido a su mundo, aunque su relación se complicará mucho más con la llegada de una amiga de Dan, que no aprueba el modo de vida de Serena y que intentará que Dan vuelva a sus raíces más normales. Por su parte, su hermana Jenny es la más joven del grupo y quiere desesperadamente ser aceptada. El precio que tendrá que pagar por la popularidad será un alto peaje, pero en este momento, Jenny tan sólo está emocionada por pode rentrar en este mundo tan glamuroso.

Rastrear estas amistades fluctuantes, los celos entre compañeros y la agitación que se vive en este mundo tan complejo y lleno de dinero no es fácil, pero eso es lo que la "Gossip Girl" hace mejor. (TusSeries)

[VIDEO]http://www.youtube.com/watch?v=oy5xM3H7cFY[/VIDEO]

WebSite http://www.cwtv.com/shows/gossip-girl
FilmAffinity http://www.filmaffinity.com/es/film974909.html
IMDB http://www.imdb.es/title/tt0397442/
YouTube http://www.youtube.com/v/oy5xM3H7cFY


· · · · · · · · · · · · · · · : : | Media Info | : : · · · · · · · · · · · · · · ·

Temporada: 01
Nº de Capitulos: 18
Rip: DVDRip
Formato: 480p
Contenedor: AVI
Audio: Castellano e Inglés
Tamaño: 550 MB
Rippeo: Jesuscas
Spoiler

General
Format : AVI
Format/Info : Audio Video Interleave
File size : 565 MiB
Duration : 40mn 46s
Overall bit rate : 1 936 Kbps


Video
ID : 0
Format : MPEG-4 Visual
Format profile : Advanced Simple@L5
Format settings, BVOP : 1
Format settings, QPel : No
Format settings, GMC : No warppoints
Format settings, Matrix : Custom
Codec ID : XVID
Codec ID/Hint : XviD
Duration : 40mn 46s
Bit rate : 1 538 Kbps
Width : 704 pixels
Height : 396 pixels
Display aspect ratio : 16:9
Frame rate : 25.000 fps
Original frame rate : 23.976 fps
Color space : YUV
Chroma subsampling : 4:2:0
Bit depth : 8 bits
Scan type : Progressive
Compression mode : Lossy
Bits/(Pixel*Frame) : 0.221
Stream size : 448 MiB (79%)
Writing library : XviD 1.2.0.dev47 (UTC 2006-11-01)

Audio #1
ID : 1
Format : MPEG Audio
Format version : Version 1
Format profile : Layer 3
Mode : Joint stereo
Codec ID : 55
Codec ID/Hint : MP3
Duration : 40mn 46s
Bit rate mode : Constant
Bit rate : 192 Kbps
Channel(s) : 2 channels
Sampling rate : 48.0 KHz
Compression mode : Lossy
Stream size : 56.0 MiB (10%)
Alignment : Aligned on interleaves
Interleave, duration : 40 ms (1.00 video frame)
Interleave, preload duration : 504 ms

Audio #2
ID : 2
Format : MPEG Audio
Format version : Version 1
Format profile : Layer 3
Mode : Joint stereo
Codec ID : 55
Codec ID/Hint : MP3
Duration : 40mn 46s
Bit rate mode : Constant
Bit rate : 192 Kbps
Channel(s) : 2 channels
Sampling rate : 48.0 KHz
Compression mode : Lossy
Stream size : 56.0 MiB (10%)
Alignment : Aligned on interleaves
Interleave, duration : 40 ms (1.00 video frame)
Interleave, preload duration : 504 ms




· · · · · · · · · · · · · · · : : | Links | : : · · · · · · · · · · · · · · ·

http://share-links.biz/_y7uykkmj2be/SGIRLGOSDT01
· · · · · · · · · · · · · · · · · · · · · · · · · · · · · · · · · · · · · · · · · ·

Visita mi Perfil para ver MI CATALOGO de Series | Temporadas en Defición Estándar y Alta Definición

Descargar Gossip Girl T.1 [DVD+DVB] [DUAL] [550MB] [18/18] [ MultiHost ] 1 Link Gratis


05-mar-2013
kicho16
White User
Re: Gossip Girl T.1 [DVD+DVB] [DUAL] [550MB] [18/18] [ MultiHost ] 1 Link
Pide una contraseña, cual es?
05-mar-2013
Nukety
Premium User
Re: Gossip Girl T.1 [DVD+DVB] [DUAL] [550MB] [18/18] [ MultiHost ] 1 Link
Hola el password es: Nukety

Necesitás estar Registrado para dejar comentarios en Gossip Girl T.1 [DVD+DVB] [DUAL] [550MB] [18/18] [ MultiHost ] 1 Link

Información del Post