Monstruos de Rio - El Verdugo Invisible (Discovery Max) [TDTRip][Castellano][Mp4]


Descargar Monstruos de Rio - El Verdugo Invisible (Discovery Max) [TDTRip][Castellano][Mp4] Gratis 1 link por Mega y Mediafire



Argentina Warez » Descargas Gratis » Series de TV Gratis Monstruos de Rio - El Verdugo Invisible (Discovery Max) [TDTRip][Castellano][Mp4]
24-feb-2013
makano77
Premier User
Monstruos de Rio - El Verdugo Invisible (Discovery Max) [TDTRip][Castellano][Mp4]


Jeremy Wade se traslada al salvaje río Zambezi, en África, con el objetivo de desenmascarar a un depredador invisible que se dedica a arrastrar a los pescadores a su muerte.



Código:
General
Format                                   : MPEG-4
Format profile                           : Base Media
Codec ID                                 : isom
File size                                : 349 MiB
Duration                                 : 44mn 3s
Overall bit rate mode                    : Variable
Overall bit rate                         : 1 107 Kbps
Encoded date                             : UTC 2013-02-24 09:02:37
Tagged date                              : UTC 2013-02-24 09:02:37

Video
ID                                       : 1
Format                                   : AVC
Format/Info                              : Advanced Video Codec
Format profile                           : High@L3.1
Format settings, CABAC                   : Yes
Format settings, ReFrames                : 4 frames
Codec ID                                 : avc1
Codec ID/Info                            : Advanced Video Coding
Duration                                 : 44mn 3s
Bit rate                                 : 969 Kbps
Maximum bit rate                         : 5 874 Kbps
Width                                    : 704 pixels
Height                                   : 400 pixels
Display aspect ratio                     : 16:9
Frame rate mode                          : Constant
Frame rate                               : 25.000 fps
Color space                              : YUV
Chroma subsampling                       : 4:2:0
Bit depth                                : 8 bits
Scan type                                : Progressive
Bits/(Pixel*Frame)                       : 0.138
Stream size                              : 305 MiB (88%)
Writing library                          : x264 core 129 r2245 bc13772
Encoding settings                        : cabac=1 / ref=4 / deblock=1:0:0 / analyse=0x3:0x133 / me=umh / subme=9 / psy=1 / psy_rd=1.00:0.00 / mixed_ref=1 / me_range=24 / chroma_me=1 / trellis=2 / 8x8dct=1 / cqm=0 / deadzone=21,11 / fast_pskip=0 / chroma_qp_offset=-2 / threads=12 / lookahead_threads=2 / sliced_threads=0 / nr=0 / decimate=1 / interlaced=0 / bluray_compat=0 / constrained_intra=0 / bframes=4 / b_pyramid=2 / b_adapt=2 / b_bias=0 / direct=3 / weightb=1 / open_gop=0 / weightp=2 / keyint=250 / keyint_min=25 / scenecut=40 / intra_refresh=0 / rc_lookahead=50 / rc=crf / mbtree=1 / crf=20.2 / qcomp=0.60 / qpmin=0 / qpmax=69 / qpstep=4 / ip_ratio=1.40 / aq=1:1.00
Encoded date                             : UTC 2013-02-24 07:10:34
Tagged date                              : UTC 2013-02-24 09:02:39

Audio
ID                                       : 2
Format                                   : AAC
Format/Info                              : Advanced Audio Codec
Format profile                           : LC
Codec ID                                 : 40
Duration                                 : 44mn 3s
Bit rate mode                            : Variable
Bit rate                                 : 132 Kbps
Maximum bit rate                         : 161 Kbps
Channel(s)                               : 2 channels
Channel positions                        : Front: L R
Sampling rate                            : 48.0 KHz
Compression mode                         : Lossy
Stream size                              : 42.1 MiB (12%)
Language                                 : Spanish
Encoded date                             : UTC 2013-02-23 23:28:14
Tagged date                              : UTC 2013-02-24 09:02:39
http://ul.to/4xc7dttz

Descargar Monstruos de Rio - El Verdugo Invisible (Discovery Max) [TDTRip][Castellano][Mp4] Gratis



Necesitás estar Registrado para dejar comentarios en la descarga Monstruos de Rio - El Verdugo Invisible (Discovery Max) [TDTRip][Castellano][Mp4]

Información del Post