Descargar Madre e Hija Españolas Reales HD (segunda entrega)




Argentina Warez » Zona XXX » Videos Porno Gratis Descargar Madre e Hija Españolas Reales HD (segunda entrega)
27-nov-2011
MigueGFX
King User
Descargar Madre e Hija Españolas Reales HD (segunda entrega)


General
Complete name :MeHE.avi
Format : AVI
Format/Info : Audio Video Interleave
File size : 368 MiB
Duration : 37mn 30s
Overall bit rate : 1 373 Kbps
Director : created.with.SUPER(C).v2011.bld.49
Writing application : SUPER(C) - by eRightSoft

Video
ID : 0
Format : MPEG-4 Visual
Format profile : Simple@L1
Format settings, BVOP : No
Format settings, QPel : No
Format settings, GMC : No warppoints
Format settings, Matrix : Default (H.263)
Codec ID : DIVX
Codec ID/Info : Project Mayo
Codec ID/Hint : DivX 4
Duration : 37mn 30s
Bit rate : 1 267 Kbps
Width : 640 pixels
Height : 368 pixels
Display aspect ratio : 16:9
Frame rate : 15.000 fps
Color space : YUV
Chroma subsampling : 4:2:0
Bit depth : 8 bits
Scan type : Progressive
Compression mode : Lossy
Bits/(Pixel*Frame) : 0.359
Stream size : 340 MiB (92%)
Writing library : SUPER(C)

Audio
ID : 1
Format : MPEG Audio
Format version : Version 1
Format profile : Layer 3
Codec ID : 55
Codec ID/Hint : MP3
Duration : 37mn 30s
Bit rate mode : Constant
Bit rate : 96.0 Kbps
Channel(s) : 2 channels
Sampling rate : 44.1 KHz
Compression mode : Lossy
Stream size : 25.8 MiB (7%)
Alignment : Aligned on interleaves
Interleave, duration : 26 ms (0.39 video frame)
Interleave, preload duration : 522 ms





http://www.filejungle.com/f/bsZUvh/Madre.y.Hi.HD.rar

Descargar Descargar Madre e Hija Españolas Reales HD (segunda entrega) Gratis


14-dic-2011
radioheadx7
New User
Re: Descargar Madre e Hija Españolas Reales HD (segunda entrega)
hola tendra el otro video de estas 2 donde hace un casting gracias
14-dic-2011
doctor159
Silver User
Re: Descargar Madre e Hija Españolas Reales HD (segunda entrega)







http://www.fileserve.com/file/mndpFaz



http://www.filesonic.com/file/4223831254
29-dic-2011
doctor159
Silver User
Re: Descargar Madre e Hija Españolas Reales HD (segunda entrega)
muy buena
29-dic-2011
lud8
Black User
Re: Descargar Madre e Hija Españolas Reales HD (segunda entrega)
se agradece la aportación.
02-ene-2012
radioheadx7
New User
Re: Descargar Madre e Hija Españolas Reales HD (segunda entrega)
no tienes el otro video de la mdre he hija

Necesitás estar Registrado para dejar comentarios en Descargar Madre e Hija Españolas Reales HD (segunda entrega)

Información del Post